  0
SECTION
  2
HEADER
  9
$ACADVER
  1
AC1015
  9
$ACADMAINTVER
 70
     6
  9
$DWGCODEPAGE
  3
ANSI_932
  9
$INSBASE
 10
0.0
 20
0.0
 30
0.0
  9
$EXTMIN
 10
-18.02838400326076
 20
-96.94776152585452
 30
-0.00000001
  9
$EXTMAX
 10
366.6441095204071
 20
142.3653645721707
 30
0.00000001
  9
$LIMMIN
 10
11.99995659722222
 20
-7.412467447916665
  9
$LIMMAX
 10
286.7008463541666
 20
292.9170043945311
  9
$ORTHOMODE
 70
     0
  9
$REGENMODE
 70
     1
  9
$FILLMODE
 70
     1
  9
$QTEXTMODE
 70
     0
  9
$MIRRTEXT
 70
     1
  9
$LTSCALE
 40
1.0
  9
$ATTMODE
 70
     1
  9
$TEXTSIZE
 40
0.0
  9
$TRACEWID
 40
0.05
  9
$TEXTSTYLE
  7
Standard
  9
$CLAYER
  8
0
  9
$CELTYPE
  6
ByLayer
  9
$CECOLOR
 62
   256
  9
$CELTSCALE
 40
1.0
  9
$DISPSILH
 70
     0
  9
$DIMSCALE
 40
1.0
  9
$DIMASZ
 40
2.0
  9
$DIMEXO
 40
2.0
  9
$DIMDLI
 40
3.75
  9
$DIMRND
 40
0.0
  9
$DIMDLE
 40
0.0
  9
$DIMEXE
 40
0.5
  9
$DIMTP
 40
0.0
  9
$DIMTM
 40
0.0
  9
$DIMTXT
 40
2.5
  9
$DIMCEN
 40
2.0
  9
$DIMTSZ
 40
0.0
  9
$DIMTOL
 70
     0
  9
$DIMLIM
 70
     0
  9
$DIMTIH
 70
     0
  9
$DIMTOH
 70
     0
  9
$DIMSE1
 70
     0
  9
$DIMSE2
 70
     0
  9
$DIMTAD
 70
     1
  9
$DIMZIN
 70
     8
  9
$DIMBLK
  1

  9
$DIMASO
 70
     1
  9
$DIMSHO
 70
     1
  9
$DIMPOST
  1

  9
$DIMAPOST
  1

  9
$DIMALT
 70
     0
  9
$DIMALTD
 70
     3
  9
$DIMALTF
 40
0.03937007874016
  9
$DIMLFAC
 40
1.0
  9
$DIMTOFL
 70
     1
  9
$DIMTVP
 40
0.0
  9
$DIMTIX
 70
     1
  9
$DIMSOXD
 70
     1
  9
$DIMSAH
 70
     0
  9
$DIMBLK1
  1

  9
$DIMBLK2
  1

  9
$DIMSTYLE
  2
ISO-25 1／10
  9
$DIMCLRD
 70
     0
  9
$DIMCLRE
 70
     0
  9
$DIMCLRT
 70
     0
  9
$DIMTFAC
 40
1.0
  9
$DIMGAP
 40
0.75
  9
$DIMJUST
 70
     0
  9
$DIMSD1
 70
     0
  9
$DIMSD2
 70
     0
  9
$DIMTOLJ
 70
     0
  9
$DIMTZIN
 70
     8
  9
$DIMALTZ
 70
     0
  9
$DIMALTTZ
 70
     0
  9
$DIMUPT
 70
     0
  9
$DIMDEC
 70
     8
  9
$DIMTDEC
 70
     8
  9
$DIMALTU
 70
     2
  9
$DIMALTTD
 70
     3
  9
$DIMTXSTY
  7
Standard
  9
$DIMAUNIT
 70
     0
  9
$DIMADEC
 70
     1
  9
$DIMALTRND
 40
0.0
  9
$DIMAZIN
 70
     0
  9
$DIMDSEP
 70
    46
  9
$DIMATFIT
 70
     3
  9
$DIMFRAC
 70
     0
  9
$DIMLDRBLK
  1

  9
$DIMLUNIT
 70
     2
  9
$DIMLWD
 70
    -2
  9
$DIMLWE
 70
    -2
  9
$DIMTMOVE
 70
     0
  9
$LUNITS
 70
     2
  9
$LUPREC
 70
     4
  9
$SKETCHINC
 40
0.1
  9
$FILLETRAD
 40
0.0
  9
$AUNITS
 70
     0
  9
$AUPREC
 70
     0
  9
$MENU
  1
acad
  9
$ELEVATION
 40
0.0
  9
$PELEVATION
 40
0.0
  9
$THICKNESS
 40
0.0
  9
$LIMCHECK
 70
     0
  9
$CHAMFERA
 40
0.0
  9
$CHAMFERB
 40
0.0
  9
$CHAMFERC
 40
0.0
  9
$CHAMFERD
 40
0.0
  9
$SKPOLY
 70
     0
  9
$TDCREATE
 40
2460397.478731909
  9
$TDUCREATE
 40
2460397.103731910
  9
$TDUPDATE
 40
2460398.389846389
  9
$TDUUPDATE
 40
2460398.014846388
  9
$TDINDWG
 40
0.0394996296
  9
$TDUSRTIMER
 40
0.0394996296
  9
$USRTIMER
 70
     1
  9
$ANGBASE
 50
0.0
  9
$ANGDIR
 70
     0
  9
$PDMODE
 70
     0
  9
$PDSIZE
 40
0.0
  9
$PLINEWID
 40
0.0
  9
$SPLFRAME
 70
     0
  9
$SPLINETYPE
 70
     6
  9
$SPLINESEGS
 70
     8
  9
$HANDSEED
  5
1DFA
  9
$SURFTAB1
 70
     6
  9
$SURFTAB2
 70
     6
  9
$SURFTYPE
 70
     6
  9
$SURFU
 70
     6
  9
$SURFV
 70
     6
  9
$UCSBASE
  2

  9
$UCSNAME
  2

  9
$UCSORG
 10
0.0
 20
0.0
 30
0.0
  9
$UCSXDIR
 10
1.0
 20
0.0
 30
0.0
  9
$UCSYDIR
 10
0.0
 20
1.0
 30
0.0
  9
$UCSORTHOREF
  2

  9
$UCSORTHOVIEW
 70
     0
  9
$UCSORGTOP
 10
0.0
 20
0.0
 30
0.0
  9
$UCSORGBOTTOM
 10
0.0
 20
0.0
 30
0.0
  9
$UCSORGLEFT
 10
0.0
 20
0.0
 30
0.0
  9
$UCSORGRIGHT
 10
0.0
 20
0.0
 30
0.0
  9
$UCSORGFRONT
 10
0.0
 20
0.0
 30
0.0
  9
$UCSORGBACK
 10
0.0
 20
0.0
 30
0.0
  9
$PUCSBASE
  2

  9
$PUCSNAME
  2

  9
$PUCSORG
 10
0.0
 20
0.0
 30
0.0
  9
$PUCSXDIR
 10
1.0
 20
0.0
 30
0.0
  9
$PUCSYDIR
 10
0.0
 20
1.0
 30
0.0
  9
$PUCSORTHOREF
  2

  9
$PUCSORTHOVIEW
 70
     0
  9
$PUCSORGTOP
 10
0.0
 20
0.0
 30
0.0
  9
$PUCSORGBOTTOM
 10
0.0
 20
0.0
 30
0.0
  9
$PUCSORGLEFT
 10
0.0
 20
0.0
 30
0.0
  9
$PUCSORGRIGHT
 10
0.0
 20
0.0
 30
0.0
  9
$PUCSORGFRONT
 10
0.0
 20
0.0
 30
0.0
  9
$PUCSORGBACK
 10
0.0
 20
0.0
 30
0.0
  9
$USERI1
 70
     0
  9
$USERI2
 70
     0
  9
$USERI3
 70
     0
  9
$USERI4
 70
     0
  9
$USERI5
 70
     0
  9
$USERR1
 40
0.0
  9
$USERR2
 40
0.0
  9
$USERR3
 40
0.0
  9
$USERR4
 40
0.0
  9
$USERR5
 40
0.0
  9
$WORLDVIEW
 70
     1
  9
$SHADEDGE
 70
     3
  9
$SHADEDIF
 70
    70
  9
$TILEMODE
 70
     1
  9
$MAXACTVP
 70
    16
  9
$PINSBASE
 10
0.0
 20
0.0
 30
0.0
  9
$PLIMCHECK
 70
     0
  9
$PEXTMIN
 10
1.000000000000000E+20
 20
1.000000000000000E+20
 30
1.000000000000000E+20
  9
$PEXTMAX
 10
-1.000000000000000E+20
 20
-1.000000000000000E+20
 30
-1.000000000000000E+20
  9
$PLIMMIN
 10
0.0
 20
0.0
  9
$PLIMMAX
 10
12.0
 20
9.0
  9
$UNITMODE
 70
     0
  9
$VISRETAIN
 70
     0
  9
$PLINEGEN
 70
     1
  9
$PSLTSCALE
 70
     0
  9
$TREEDEPTH
 70
  3020
  9
$CMLSTYLE
  2
Standard
  9
$CMLJUST
 70
     0
  9
$CMLSCALE
 40
1.0
  9
$PROXYGRAPHICS
 70
     0
  9
$MEASUREMENT
 70
     1
  9
$CELWEIGHT
370
    13
  9
$ENDCAPS
280
     0
  9
$JOINSTYLE
280
     0
  9
$LWDISPLAY
290
     0
  9
$INSUNITS
 70
     0
  9
$HYPERLINKBASE
  1

  9
$STYLESHEET
  1

  9
$XEDIT
290
     1
  9
$CEPSNTYPE
380
     0
  9
$PSTYLEMODE
290
     1
  9
$FINGERPRINTGUID
  2

  9
$VERSIONGUID
  2
{C9C0A785-1846-4E75-884D-1CD70A2E1346}
  9
$EXTNAMES
290
     1
  9
$PSVPSCALE
 40
0.0
  9
$OLESTARTUP
290
     0
  0
ENDSEC
  0
SECTION
  2
CLASSES
  0
CLASS
  1
LWPOLYLINE
  2
AcDbPolyline
  3
AutoCAD 2000
 90
    32768
280
     0
281
     1
  0
CLASS
  1
IMAGE
  2
AcDbRasterImage
  3
ISM
 90
    32895
280
     0
281
     1
  0
CLASS
  1
OLE2FRAME
  2
AcDbOle2Frame
  3
AutoCAD 2000
 90
    32768
280
     0
281
     1
  0
CLASS
  1
HATCH
  2
AcDbHatch
  3
AutoCAD 2000
 90
    32768
280
     0
281
     1
  0
CLASS
  1
DICTIONARYVAR
  2
AcDbDictionaryVar
  3
AutoCAD 2000
 90
    32768
280
     0
281
     0
  0
CLASS
  1
RASTERVARIABLES
  2
AcDbRasterVariables
  3
ISM
 90
        0
280
     0
281
     0
  0
CLASS
  1
IMAGEDEF
  2
AcDbRasterImageDef
  3
ISM
 90
    32768
280
     0
281
     0
  0
CLASS
  1
IMAGEDEF_REACTOR
  2
AcDbRasterImageDefReactor
  3
ISM
 90
    32769
280
     0
281
     0
  0
CLASS
  1
IDBUFFER
  2
AcDbIdBuffer
  3
AutoCAD 2000
 90
    32768
280
     0
281
     0
  0
CLASS
  1
SPATIAL_FILTER
  2
AcDbSpatialFilter
  3
AutoCAD 2000
 90
    32768
280
     0
281
     0
  0
CLASS
  1
XRECORD
  2
AcDbXrecord
  3
AutoCAD 2000
 90
    32768
280
     0
281
     0
  0
CLASS
  1
SORTENTSTABLE
  2
AcDbSortentsTable
  3
AutoCAD 2000
 90
    32768
280
     0
281
     0
  0
CLASS
  1
LAYER_INDEX
  2
AcDbLayerIndex
  3
AutoCAD 2000
 90
    32768
280
     0
281
     0
  0
CLASS
  1
SPATIAL_INDEX
  2
AcDbSpatialIndex
  3
AutoCAD 2000
 90
    32768
280
     0
281
     0
  0
CLASS
  1
OBJECT_PTR
  2
CAseDLPNTableRecord
  3
"ASE-LPNTableRecord"
 90
    32769
280
     0
281
     0
  0
CLASS
  1
LAYOUT
  2
AcDbLayout
  3
AutoCAD 2000
 90
        0
280
     0
281
     0
  0
CLASS
  1
PLOTSETTINGS
  2
AcDbPlotSettings
  3
AutoCAD 2000
 90
    32768
280
     0
281
     0
  0
CLASS
  1
ACDBDICTIONARYWDFLT
  2
AcDbDictionaryWithDefault
  3
AutoCAD 2000
 90
        0
280
     0
281
     0
  0
CLASS
  1
ACDBPLACEHOLDER
  2
AcDbPlaceHolder
  3
AutoCAD 2000
 90
        0
280
     0
281
     0
  0
CLASS
  1
VBA_PROJECT
  2
AcDbVbaProject
  3
acadvba
 90
    32768
280
     0
281
     0
  0
CLASS
  1
WIPEOUT
  2
AcDbWipeout
  3
WipeOut|AutoCAD Express Tool|expresstools@autodesk.com
 90
    32895
280
     0
281
     1
  0
CLASS
  1
WIPEOUTVARIABLES
  2
AcDbWipeoutVariables
  3
WipeOut|AutoCAD Express Tool|expresstools@autodesk.com
 90
        0
280
     0
281
     0
  0
CLASS
  1
RTEXT
  2
RText
  3
RText|AutoCAD Express Tool|expresstools@autodesk.com
 90
    32768
280
     0
281
     1
  0
CLASS
  1
ARCALIGNEDTEXT
  2
AcDbArcAlignedText
  3
ATEXT|AutoCAD Express Tool|expresstools@autodesk.com
 90
    32768
280
     0
281
     1
  0
ENDSEC
  0
SECTION
  2
TABLES
  0
TABLE
  2
VPORT
  5
7
330
0
100
AcDbSymbolTable
 70
     2
  0
VPORT
  5
1DF9
330
7
100
AcDbSymbolTableRecord
100
AcDbViewportTableRecord
  2
*Active
 70
     0
 10
0.0
 20
0.0
 11
1.0
 21
1.0
 12
191.0097119530548
 22
18.53002620953015
 13
0.0
 23
0.0
 14
1.0
 24
1.0
 15
0.0
 25
0.0
 16
0.0
 26
0.0
 36
1.0
 17
0.0
 27
0.0
 37
0.0
 40
352.6413395943803
 41
2.165492957746478
 42
50.0
 43
0.0
 44
0.0
 50
0.0
 51
0.0
 71
     0
 72
   100
 73
     1
 74
     1
 75
     0
 76
     0
 77
     0
 78
     0
281
     0
 65
     0
110
0.0
120
0.0
130
0.0
111
1.0
121
0.0
131
0.0
112
0.0
122
1.0
132
0.0
 79
     0
146
0.0
  0
ENDTAB
  0
TABLE
  2
LTYPE
  5
4
330
0
100
AcDbSymbolTable
 70
     1
  0
LTYPE
  5
11
330
4
100
AcDbSymbolTableRecord
100
AcDbLinetypeTableRecord
  2
ByBlock
 70
     0
  3

 72
    65
 73
     0
 40
0.0
  0
LTYPE
  5
12
330
4
100
AcDbSymbolTableRecord
100
AcDbLinetypeTableRecord
  2
ByLayer
 70
     0
  3

 72
    65
 73
     0
 40
0.0
  0
LTYPE
  5
13
330
4
100
AcDbSymbolTableRecord
100
AcDbLinetypeTableRecord
  2
Continuous
 70
     0
  3
Solid line
 72
    65
 73
     0
 40
0.0
  0
ENDTAB
  0
TABLE
  2
LAYER
  5
2
102
{ACAD_XDICTIONARY
360
C38
102
}
330
0
100
AcDbSymbolTable
 70
     4
  0
LAYER
  5
14
330
2
100
AcDbSymbolTableRecord
100
AcDbLayerTableRecord
  2
0
 70
     0
 62
     7
  6
Continuous
370
    -3
390
1D
  0
LAYER
  5
EB8
330
2
100
AcDbSymbolTableRecord
100
AcDbLayerTableRecord
  2
Defpoints
 70
     0
 62
     2
  6
Continuous
290
     0
370
    -3
390
1D
  0
LAYER
  5
EB9
330
2
100
AcDbSymbolTableRecord
100
AcDbLayerTableRecord
  2
寸法
 70
     0
 62
     6
  6
Continuous
370
    -3
390
1D
  0
LAYER
  5
EBA
330
2
100
AcDbSymbolTableRecord
100
AcDbLayerTableRecord
  2
文字
 70
     0
 62
    30
  6
Continuous
370
    -3
390
1D
  0
ENDTAB
  0
TABLE
  2
STYLE
  5
3
330
0
100
AcDbSymbolTable
 70
     1
  0
STYLE
  5
17
330
3
100
AcDbSymbolTableRecord
100
AcDbTextStyleTableRecord
  2
Standard
 70
     0
 40
0.0
 41
1.0
 50
0.0
 71
     0
 42
0.0
  3
txt
  4

  0
ENDTAB
  0
TABLE
  2
VIEW
  5
5
330
0
100
AcDbSymbolTable
 70
     0
  0
ENDTAB
  0
TABLE
  2
UCS
  5
6
330
0
100
AcDbSymbolTable
 70
     0
  0
ENDTAB
  0
TABLE
  2
APPID
  5
8
330
0
100
AcDbSymbolTable
 70
     1
  0
APPID
  5
16
330
8
100
AcDbSymbolTableRecord
100
AcDbRegAppTableRecord
  2
ACAD
 70
     0
  0
ENDTAB
  0
TABLE
  2
DIMSTYLE
  5
9
330
0
100
AcDbSymbolTable
 70
     2
100
AcDbDimStyleTable
 71
     2
340
EBB
340
18
  0
DIMSTYLE
105
18
330
9
100
AcDbSymbolTableRecord
100
AcDbDimStyleTableRecord
  2
Standard
 70
     0
289
     0
340
17
  0
DIMSTYLE
105
EBB
102
{ACAD_REACTORS
330
158E
330
15C6
330
15E5
330
1682
330
1683
330
16C5
330
1730
330
1A33
330
1A62
330
1A78
330
1A8E
330
1C60
102
}
330
9
100
AcDbSymbolTableRecord
100
AcDbDimStyleTableRecord
  2
ISO-25 1／10
 70
     0
 41
2.0
 42
2.0
 43
3.75
 44
0.5
 73
     0
 74
     0
 77
     1
 78
     8
140
2.5
141
2.0
143
0.03937007874016
147
0.75
171
     3
172
     1
174
     1
175
     1
179
     1
271
     8
272
     8
274
     3
283
     0
284
     8
340
17
  0
ENDTAB
  0
TABLE
  2
BLOCK_RECORD
  5
1
330
0
100
AcDbSymbolTable
 70
    12
  0
BLOCK_RECORD
  5
A
330
1
100
AcDbSymbolTableRecord
100
AcDbBlockTableRecord
  2
*MODEL_SPACE
340
20
  0
BLOCK_RECORD
  5
B
330
1
100
AcDbSymbolTableRecord
100
AcDbBlockTableRecord
  2
*PAPER_SPACE
340
21
  0
BLOCK_RECORD
  5
158F
330
1
100
AcDbSymbolTableRecord
100
AcDbBlockTableRecord
  2
*D0
340
0
  0
BLOCK_RECORD
  5
15C7
330
1
100
AcDbSymbolTableRecord
100
AcDbBlockTableRecord
  2
*D1
340
0
  0
BLOCK_RECORD
  5
15E6
330
1
100
AcDbSymbolTableRecord
100
AcDbBlockTableRecord
  2
*D2
340
0
  0
BLOCK_RECORD
  5
1684
330
1
100
AcDbSymbolTableRecord
100
AcDbBlockTableRecord
  2
*D3
340
0
  0
BLOCK_RECORD
  5
1690
330
1
100
AcDbSymbolTableRecord
100
AcDbBlockTableRecord
  2
*D4
340
0
  0
BLOCK_RECORD
  5
16C6
330
1
100
AcDbSymbolTableRecord
100
AcDbBlockTableRecord
  2
*D5
340
0
  0
BLOCK_RECORD
  5
1731
330
1
100
AcDbSymbolTableRecord
100
AcDbBlockTableRecord
  2
*D6
340
0
  0
BLOCK_RECORD
  5
1A34
330
1
100
AcDbSymbolTableRecord
100
AcDbBlockTableRecord
  2
*D7
340
0
  0
BLOCK_RECORD
  5
1A63
330
1
100
AcDbSymbolTableRecord
100
AcDbBlockTableRecord
  2
*D8
340
0
  0
BLOCK_RECORD
  5
1A79
330
1
100
AcDbSymbolTableRecord
100
AcDbBlockTableRecord
  2
*D9
340
0
  0
BLOCK_RECORD
  5
1A8F
330
1
100
AcDbSymbolTableRecord
100
AcDbBlockTableRecord
  2
*D10
340
0
  0
BLOCK_RECORD
  5
1C62
330
1
100
AcDbSymbolTableRecord
100
AcDbBlockTableRecord
  2
*D11
340
0
  0
ENDTAB
  0
ENDSEC
  0
SECTION
  2
BLOCKS
  0
BLOCK
  5
D
330
A
100
AcDbEntity
  8
0
100
AcDbBlockBegin
  2
*MODEL_SPACE
 70
     0
 10
0.0
 20
0.0
 30
0.0
  3
*MODEL_SPACE
  1

  0
ENDBLK
  5
E
330
A
100
AcDbEntity
  8
0
100
AcDbBlockEnd
  0
BLOCK
  5
F
330
B
100
AcDbEntity
 67
     1
  8
0
100
AcDbBlockBegin
  2
*PAPER_SPACE
 70
     0
 10
0.0
 20
0.0
 30
0.0
  3
*PAPER_SPACE
  1

  0
ENDBLK
  5
10
330
B
100
AcDbEntity
 67
     1
  8
0
100
AcDbBlockEnd
  0
BLOCK
  5
1599
330
158F
100
AcDbEntity
  8
0
370
    13
100
AcDbBlockBegin
  2
*D0
 70
     1
 10
0.0
 20
0.0
 30
0.0
  3
*D0
  1

  0
LINE
  5
1679
330
158F
100
AcDbEntity
  8
寸法
 62
     0
370
    -2
100
AcDbLine
 10
289.6428699696211
 20
81.24196230652916
 30
0.0
 11
289.6428699696211
 21
84.74196230652916
 31
0.0
  0
LINE
  5
167A
330
158F
100
AcDbEntity
  8
寸法
 62
     0
370
    -2
100
AcDbLine
 10
300.6428700019126
 20
81.24196230652916
 30
0.0
 11
300.6428700019126
 21
84.74196230652916
 31
0.0
  0
LINE
  5
167B
330
158F
100
AcDbEntity
  8
寸法
 62
     0
370
    -2
100
AcDbLine
 10
291.6428699696211
 20
84.24196230652915
 30
0.0
 11
298.6428700019126
 21
84.24196230652915
 31
0.0
  0
SOLID
  5
167C
330
158F
100
AcDbEntity
  8
寸法
 62
     0
370
    13
100
AcDbTrace
 10
291.6428699696211
 20
84.57529563986248
 30
0.0
 11
291.6428699696211
 21
83.90862897319584
 31
0.0
 12
289.6428699696211
 22
84.24196230652915
 32
0.0
 13
289.6428699696211
 23
84.24196230652915
 33
0.0
  0
SOLID
  5
167D
330
158F
100
AcDbEntity
  8
寸法
 62
     0
370
    13
100
AcDbTrace
 10
298.6428700019126
 20
84.57529563986248
 30
0.0
 11
298.6428700019126
 21
83.90862897319584
 31
0.0
 12
300.6428700019126
 22
84.24196230652915
 32
0.0
 13
300.6428700019126
 23
84.24196230652915
 33
0.0
  0
MTEXT
  5
167E
330
158F
100
AcDbEntity
  8
寸法
 62
     0
370
    13
100
AcDbMText
 10
295.1428699857669
 20
86.24196230652916
 30
0.0
 40
2.5
 41
0.0
 71
     5
 72
     1
  1
11
 73
     1
 44
1.0
  0
POINT
  5
167F
330
158F
100
AcDbEntity
  8
Defpoints
 62
     0
370
    13
100
AcDbPoint
 10
289.6428699696211
 20
79.24196230652916
 30
0.0
  0
POINT
  5
1680
330
158F
100
AcDbEntity
  8
Defpoints
 62
     0
370
    13
100
AcDbPoint
 10
300.6428700019126
 20
79.24196230652916
 30
0.0
  0
POINT
  5
1681
330
158F
100
AcDbEntity
  8
Defpoints
 62
     0
370
    13
100
AcDbPoint
 10
300.6428700019126
 20
84.24196230652915
 30
0.0
  0
ENDBLK
  5
159A
330
158F
100
AcDbEntity
  8
0
370
    13
100
AcDbBlockEnd
  0
BLOCK
  5
15D1
330
15C7
100
AcDbEntity
  8
0
370
    13
100
AcDbBlockBegin
  2
*D1
 70
     1
 10
0.0
 20
0.0
 30
0.0
  3
*D1
  1

  0
LINE
  5
19BC
330
15C7
100
AcDbEntity
  8
寸法
 62
     0
370
    -2
100
AcDbLine
 10
366.6428740908556
 20
-67.758037363877
 30
0.0
 11
366.6428740908556
 21
-71.25803736387701
 31
0.0
  0
LINE
  5
19BD
330
15C7
100
AcDbEntity
  8
寸法
 62
     0
370
    -2
100
AcDbLine
 10
334.6428744364414
 20
-67.758037363877
 30
0.0
 11
334.6428744364414
 21
-71.25803736387701
 31
0.0
  0
LINE
  5
19BE
330
15C7
100
AcDbEntity
  8
寸法
 62
     0
370
    -2
100
AcDbLine
 10
364.6428740908556
 20
-70.75803736387701
 30
0.0
 11
336.6428744364414
 21
-70.75803736387701
 31
0.0
  0
SOLID
  5
19BF
330
15C7
100
AcDbEntity
  8
寸法
 62
     0
370
    13
100
AcDbTrace
 10
364.6428740908556
 20
-70.42470403054368
 30
0.0
 11
364.6428740908556
 21
-71.09137069721033
 31
0.0
 12
366.6428740908556
 22
-70.75803736387701
 32
0.0
 13
366.6428740908556
 23
-70.75803736387701
 33
0.0
  0
SOLID
  5
19C0
330
15C7
100
AcDbEntity
  8
寸法
 62
     0
370
    13
100
AcDbTrace
 10
336.6428744364414
 20
-70.42470403054368
 30
0.0
 11
336.6428744364414
 21
-71.09137069721033
 31
0.0
 12
334.6428744364414
 22
-70.75803736387701
 32
0.0
 13
334.6428744364414
 23
-70.75803736387701
 33
0.0
  0
MTEXT
  5
19C1
330
15C7
100
AcDbEntity
  8
寸法
 62
     0
370
    13
100
AcDbMText
 10
350.6428742636485
 20
-68.75803736387701
 30
0.0
 40
2.5
 41
0.0
 71
     5
 72
     1
  1
32
 73
     1
 44
1.0
  0
POINT
  5
19C2
330
15C7
100
AcDbEntity
  8
Defpoints
 62
     0
370
    13
100
AcDbPoint
 10
366.6428740908556
 20
-65.75803736387701
 30
0.0
  0
POINT
  5
19C3
330
15C7
100
AcDbEntity
  8
Defpoints
 62
     0
370
    13
100
AcDbPoint
 10
334.6428744364414
 20
-65.75803736387701
 30
0.0
  0
POINT
  5
19C4
330
15C7
100
AcDbEntity
  8
Defpoints
 62
     0
370
    13
100
AcDbPoint
 10
334.6428744364414
 20
-70.75803736387701
 30
0.0
  0
ENDBLK
  5
15D2
330
15C7
100
AcDbEntity
  8
0
370
    13
100
AcDbBlockEnd
  0
BLOCK
  5
15F0
330
15E6
100
AcDbEntity
  8
0
370
    13
100
AcDbBlockBegin
  2
*D2
 70
     1
 10
0.0
 20
0.0
 30
0.0
  3
*D2
  1

  0
LINE
  5
1670
330
15E6
100
AcDbEntity
  8
寸法
 62
     0
370
    -2
100
AcDbLine
 10
287.6428699696211
 20
-5.758037598865579
 30
0.0
 11
284.1428699696212
 21
-5.758037598865578
 31
0.0
  0
LINE
  5
1671
330
15E6
100
AcDbEntity
  8
寸法
 62
     0
370
    -2
100
AcDbLine
 10
287.6428699696211
 20
79.24196230652917
 30
0.0
 11
284.1428699696212
 21
79.24196230652917
 31
0.0
  0
LINE
  5
1672
330
15E6
100
AcDbEntity
  8
寸法
 62
     0
370
    -2
100
AcDbLine
 10
284.6428699696211
 20
-3.758037598865578
 30
0.0
 11
284.6428699696211
 21
77.24196230652918
 31
0.0
  0
SOLID
  5
1673
330
15E6
100
AcDbEntity
  8
寸法
 62
     0
370
    13
100
AcDbTrace
 10
284.3095366362878
 20
-3.758037598865578
 30
0.0
 11
284.9762033029545
 21
-3.758037598865578
 31
0.0
 12
284.6428699696211
 22
-5.758037598865578
 32
0.0
 13
284.6428699696211
 23
-5.758037598865578
 33
0.0
  0
SOLID
  5
1674
330
15E6
100
AcDbEntity
  8
寸法
 62
     0
370
    13
100
AcDbTrace
 10
284.3095366362878
 20
77.24196230652918
 30
0.0
 11
284.9762033029545
 21
77.24196230652918
 31
0.0
 12
284.6428699696211
 22
79.24196230652917
 32
0.0
 13
284.6428699696211
 23
79.24196230652917
 33
0.0
  0
MTEXT
  5
1675
330
15E6
100
AcDbEntity
  8
寸法
 62
     0
370
    13
100
AcDbMText
 10
282.6428699696212
 20
36.74196235383184
 30
0.0
 40
2.5
 41
0.0
 71
     5
 72
     1
  1
85
 11
0.0000000000000001
 21
1.0
 31
0.0
 73
     1
 44
1.0
  0
POINT
  5
1676
330
15E6
100
AcDbEntity
  8
Defpoints
 62
     0
370
    13
100
AcDbPoint
 10
289.6428699696211
 20
-5.758037598865579
 30
0.0
  0
POINT
  5
1677
330
15E6
100
AcDbEntity
  8
Defpoints
 62
     0
370
    13
100
AcDbPoint
 10
289.6428699696211
 20
79.24196230652916
 30
0.0
  0
POINT
  5
1678
330
15E6
100
AcDbEntity
  8
Defpoints
 62
     0
370
    13
100
AcDbPoint
 10
284.6428699696211
 20
79.24196230652917
 30
0.0
  0
ENDBLK
  5
15F1
330
15E6
100
AcDbEntity
  8
0
370
    13
100
AcDbBlockEnd
  0
BLOCK
  5
168E
330
1684
100
AcDbEntity
  8
0
370
    13
100
AcDbBlockBegin
  2
*D3
 70
     1
 10
0.0
 20
0.0
 30
0.0
  3
*D3
  1

  0
LINE
  5
1708
330
1684
100
AcDbEntity
  8
寸法
 62
     0
370
    -2
100
AcDbLine
 10
161.7746759728878
 20
82.79245048172446
 30
0.0
 11
161.7746759728878
 21
86.29245048172448
 31
0.0
  0
LINE
  5
1709
330
1684
100
AcDbEntity
  8
寸法
 62
     0
370
    -2
100
AcDbLine
 10
172.7746759529361
 20
82.79245048172446
 30
0.0
 11
172.7746759529361
 21
86.29245048172448
 31
0.0
  0
LINE
  5
170A
330
1684
100
AcDbEntity
  8
寸法
 62
     0
370
    -2
100
AcDbLine
 10
163.7746759728878
 20
85.79245048172447
 30
0.0
 11
170.7746759529361
 21
85.79245048172447
 31
0.0
  0
SOLID
  5
170B
330
1684
100
AcDbEntity
  8
寸法
 62
     0
370
    13
100
AcDbTrace
 10
163.7746759728878
 20
86.1257838150578
 30
0.0
 11
163.7746759728878
 21
85.45911714839114
 31
0.0
 12
161.7746759728878
 22
85.79245048172447
 32
0.0
 13
161.7746759728878
 23
85.79245048172447
 33
0.0
  0
SOLID
  5
170C
330
1684
100
AcDbEntity
  8
寸法
 62
     0
370
    13
100
AcDbTrace
 10
170.7746759529361
 20
86.1257838150578
 30
0.0
 11
170.7746759529361
 21
85.45911714839114
 31
0.0
 12
172.7746759529361
 22
85.79245048172447
 32
0.0
 13
172.7746759529361
 23
85.79245048172447
 33
0.0
  0
MTEXT
  5
170D
330
1684
100
AcDbEntity
  8
寸法
 62
     0
370
    13
100
AcDbMText
 10
167.274675962912
 20
87.79245048172446
 30
0.0
 40
2.5
 41
0.0
 71
     5
 72
     1
  1
11
 73
     1
 44
1.0
  0
POINT
  5
170E
330
1684
100
AcDbEntity
  8
Defpoints
 62
     0
370
    13
100
AcDbPoint
 10
161.7746759728878
 20
80.79245048172447
 30
0.0
  0
POINT
  5
170F
330
1684
100
AcDbEntity
  8
Defpoints
 62
     0
370
    13
100
AcDbPoint
 10
172.7746759529361
 20
80.79245048172447
 30
0.0
  0
POINT
  5
1710
330
1684
100
AcDbEntity
  8
Defpoints
 62
     0
370
    13
100
AcDbPoint
 10
172.7746759529361
 20
85.79245048172447
 30
0.0
  0
ENDBLK
  5
168F
330
1684
100
AcDbEntity
  8
0
370
    13
100
AcDbBlockEnd
  0
BLOCK
  5
169A
330
1690
100
AcDbEntity
  8
0
370
    13
100
AcDbBlockBegin
  2
*D4
 70
     1
 10
0.0
 20
0.0
 30
0.0
  3
*D4
  1

  0
LINE
  5
16F6
330
1690
100
AcDbEntity
  8
寸法
 62
     0
370
    -2
100
AcDbLine
 10
160.4957996412058
 20
-64.20754939817507
 30
0.0
 11
156.2746759728877
 21
-64.20754939817506
 31
0.0
  0
LINE
  5
16F7
330
1690
100
AcDbEntity
  8
寸法
 62
     0
370
    -2
100
AcDbLine
 10
159.7746759728878
 20
80.79245048172449
 30
0.0
 11
156.2746759728878
 21
80.79245048172449
 31
0.0
  0
LINE
  5
16F8
330
1690
100
AcDbEntity
  8
寸法
 62
     0
370
    -2
100
AcDbLine
 10
156.7746759728878
 20
-62.20754939817506
 30
0.0
 11
156.7746759728878
 21
78.79245048172449
 31
0.0
  0
SOLID
  5
16F9
330
1690
100
AcDbEntity
  8
寸法
 62
     0
370
    13
100
AcDbTrace
 10
156.4413426395544
 20
-62.20754939817506
 30
0.0
 11
157.1080093062211
 21
-62.20754939817506
 31
0.0
 12
156.7746759728877
 22
-64.20754939817506
 32
0.0
 13
156.7746759728877
 23
-64.20754939817506
 33
0.0
  0
SOLID
  5
16FA
330
1690
100
AcDbEntity
  8
寸法
 62
     0
370
    13
100
AcDbTrace
 10
156.4413426395545
 20
78.79245048172449
 30
0.0
 11
157.1080093062211
 21
78.79245048172449
 31
0.0
 12
156.7746759728878
 22
80.79245048172449
 32
0.0
 13
156.7746759728878
 23
80.79245048172449
 33
0.0
  0
MTEXT
  5
16FB
330
1690
100
AcDbEntity
  8
寸法
 62
     0
370
    13
100
AcDbMText
 10
154.7746759728878
 20
8.292450541774732
 30
0.0
 40
2.5
 41
0.0
 71
     5
 72
     1
  1
145
 11
0.0000000000000001
 21
1.0
 31
0.0
 73
     1
 44
1.0
  0
POINT
  5
16FC
330
1690
100
AcDbEntity
  8
Defpoints
 62
     0
370
    13
100
AcDbPoint
 10
162.4957996412058
 20
-64.20754939817507
 30
0.0
  0
POINT
  5
16FD
330
1690
100
AcDbEntity
  8
Defpoints
 62
     0
370
    13
100
AcDbPoint
 10
161.7746759728878
 20
80.79245048172447
 30
0.0
  0
POINT
  5
16FE
330
1690
100
AcDbEntity
  8
Defpoints
 62
     0
370
    13
100
AcDbPoint
 10
156.7746759728878
 20
80.79245048172449
 30
0.0
  0
ENDBLK
  5
169B
330
1690
100
AcDbEntity
  8
0
370
    13
100
AcDbBlockEnd
  0
BLOCK
  5
16D0
330
16C6
100
AcDbEntity
  8
0
370
    13
100
AcDbBlockBegin
  2
*D5
 70
     1
 10
0.0
 20
0.0
 30
0.0
  3
*D5
  1

  0
LINE
  5
16FF
330
16C6
100
AcDbEntity
  8
寸法
 62
     0
370
    -2
100
AcDbLine
 10
237.7734406988688
 20
-66.20754939817508
 30
0.0
 11
237.7734406988688
 21
-69.70754939817507
 31
0.0
  0
LINE
  5
1700
330
16C6
100
AcDbEntity
  8
寸法
 62
     0
370
    -2
100
AcDbLine
 10
161.7734405433364
 20
-66.20754939817508
 30
0.0
 11
161.7734405433364
 21
-69.70754939817507
 31
0.0
  0
LINE
  5
1701
330
16C6
100
AcDbEntity
  8
寸法
 62
     0
370
    -2
100
AcDbLine
 10
235.7734406988688
 20
-69.20754939817507
 30
0.0
 11
163.7734405433364
 21
-69.20754939817507
 31
0.0
  0
SOLID
  5
1702
330
16C6
100
AcDbEntity
  8
寸法
 62
     0
370
    13
100
AcDbTrace
 10
235.7734406988688
 20
-68.87421606484174
 30
0.0
 11
235.7734406988688
 21
-69.54088273150841
 31
0.0
 12
237.7734406988688
 22
-69.20754939817507
 32
0.0
 13
237.7734406988688
 23
-69.20754939817507
 33
0.0
  0
SOLID
  5
1703
330
16C6
100
AcDbEntity
  8
寸法
 62
     0
370
    13
100
AcDbTrace
 10
163.7734405433364
 20
-68.87421606484174
 30
0.0
 11
163.7734405433364
 21
-69.54088273150841
 31
0.0
 12
161.7734405433364
 22
-69.20754939817507
 32
0.0
 13
161.7734405433364
 23
-69.20754939817507
 33
0.0
  0
MTEXT
  5
1704
330
16C6
100
AcDbEntity
  8
寸法
 62
     0
370
    13
100
AcDbMText
 10
199.7734406211026
 20
-67.20754939817507
 30
0.0
 40
2.5
 41
0.0
 71
     5
 72
     1
  1
76
 73
     1
 44
1.0
  0
POINT
  5
1705
330
16C6
100
AcDbEntity
  8
Defpoints
 62
     0
370
    13
100
AcDbPoint
 10
237.7734406988688
 20
-64.20754939817507
 30
0.0
  0
POINT
  5
1706
330
16C6
100
AcDbEntity
  8
Defpoints
 62
     0
370
    13
100
AcDbPoint
 10
161.7734405433364
 20
-64.20754939817507
 30
0.0
  0
POINT
  5
1707
330
16C6
100
AcDbEntity
  8
Defpoints
 62
     0
370
    13
100
AcDbPoint
 10
161.7734405433364
 20
-69.20754939817507
 30
0.0
  0
ENDBLK
  5
16D1
330
16C6
100
AcDbEntity
  8
0
370
    13
100
AcDbBlockEnd
  0
BLOCK
  5
173B
330
1731
100
AcDbEntity
  8
0
370
    13
100
AcDbBlockBegin
  2
*D6
 70
     1
 10
0.0
 20
0.0
 30
0.0
  3
*D6
  1

  0
LINE
  5
1A2A
330
1731
100
AcDbEntity
  8
寸法
 62
     0
370
    -2
100
AcDbLine
 10
288.0428700290524
 20
-6.95803767810716
 30
0.0
 11
285.2428701330569
 21
-9.058037816779943
 31
0.0
  0
LINE
  5
1A2B
330
1731
100
AcDbEntity
  8
寸法
 62
     0
370
    -2
100
AcDbLine
 10
333.0428744958725
 20
-66.95803744311859
 30
0.0
 11
330.2428745998771
 21
-69.05803758179138
 31
0.0
  0
LINE
  5
1A2C
330
1731
100
AcDbEntity
  8
寸法
 62
     0
370
    -2
100
AcDbLine
 10
286.8428701974406
 20
-10.35803773753835
 30
0.0
 11
329.4428745057777
 21
-67.15803762141217
 31
0.0
  0
SOLID
  5
1A2D
330
1731
100
AcDbEntity
  8
寸法
 62
     0
370
    13
100
AcDbTrace
 10
287.1095368542021
 20
-10.15803772433142
 30
0.0
 11
286.5762035406792
 21
-10.55803775074531
 31
0.0
 12
285.642870118199
 22
-8.758037796969546
 32
0.0
 13
285.642870118199
 23
-8.758037796969546
 33
0.0
  0
SOLID
  5
1A2E
330
1731
100
AcDbEntity
  8
寸法
 62
     0
370
    13
100
AcDbTrace
 10
329.7095411625392
 20
-66.95803760820524
 30
0.0
 11
329.1762078490162
 21
-67.35803763461913
 31
0.0
 12
330.6428745850193
 22
-68.75803756198099
 32
0.0
 13
330.6428745850193
 23
-68.75803756198099
 33
0.0
  0
MTEXT
  5
1A2F
330
1731
100
AcDbEntity
  8
寸法
 62
     0
370
    13
100
AcDbMText
 10
309.742872292178
 20
-37.55803760023372
 30
0.0
 40
2.5
 41
0.0
 71
     5
 72
     1
  1
75.000002
 11
0.6000000396207906
 21
-0.7999999702844056
 31
0.0
 73
     1
 44
1.0
  0
POINT
  5
1A30
330
1731
100
AcDbEntity
  8
Defpoints
 62
     0
370
    13
100
AcDbPoint
 10
289.6428699696211
 20
-5.75803759886557
 30
0.0
  0
POINT
  5
1A31
330
1731
100
AcDbEntity
  8
Defpoints
 62
     0
370
    13
100
AcDbPoint
 10
334.6428744364414
 20
-65.75803736387701
 30
0.0
  0
POINT
  5
1A32
330
1731
100
AcDbEntity
  8
Defpoints
 62
     0
370
    13
100
AcDbPoint
 10
330.6428745850193
 20
-68.75803756198099
 30
0.0
  0
ENDBLK
  5
173C
330
1731
100
AcDbEntity
  8
0
370
    13
100
AcDbBlockEnd
  0
BLOCK
  5
1A3E
330
1A34
100
AcDbEntity
  8
0
370
    13
100
AcDbBlockBegin
  2
*D7
 70
     1
 10
0.0
 20
0.0
 30
0.0
  3
*D7
  1

  0
LINE
  5
1B61
330
1A34
100
AcDbEntity
  8
寸法
 62
     0
370
    -2
100
AcDbLine
 10
18.24926555681931
 20
79.40182319437845
 30
0.0
 11
18.24926555681931
 21
83.40606856528715
 31
0.0
  0
LINE
  5
1B62
330
1A34
100
AcDbEntity
  8
寸法
 62
     0
370
    -2
100
AcDbLine
 10
95.24926549051468
 20
79.41436760384037
 30
0.0
 11
95.24926549051468
 21
83.40606856528715
 31
0.0
  0
LINE
  5
1B63
330
1A34
100
AcDbEntity
  8
寸法
 62
     0
370
    -2
100
AcDbLine
 10
20.2492655568193
 20
82.90606856528716
 30
0.0
 11
93.24926549051467
 21
82.90606856528716
 31
0.0
  0
SOLID
  5
1B64
330
1A34
100
AcDbEntity
  8
寸法
 62
     0
370
    13
100
AcDbTrace
 10
20.2492655568193
 20
83.23940189862048
 30
0.0
 11
20.2492655568193
 21
82.57273523195383
 31
0.0
 12
18.24926555681931
 22
82.90606856528716
 32
0.0
 13
18.24926555681931
 23
82.90606856528716
 33
0.0
  0
SOLID
  5
1B65
330
1A34
100
AcDbEntity
  8
寸法
 62
     0
370
    13
100
AcDbTrace
 10
93.24926549051467
 20
83.23940189862048
 30
0.0
 11
93.24926549051467
 21
82.57273523195383
 31
0.0
 12
95.24926549051468
 22
82.90606856528716
 32
0.0
 13
95.24926549051468
 23
82.90606856528716
 33
0.0
  0
MTEXT
  5
1B66
330
1A34
100
AcDbEntity
  8
寸法
 62
     0
370
    13
100
AcDbMText
 10
56.74926552366699
 20
84.90606856528716
 30
0.0
 40
2.5
 41
0.0
 71
     5
 72
     1
  1
77
 73
     1
 44
1.0
  0
POINT
  5
1B67
330
1A34
100
AcDbEntity
  8
Defpoints
 62
     0
370
    13
100
AcDbPoint
 10
18.24926555681931
 20
77.40182319437845
 30
0.0
  0
POINT
  5
1B68
330
1A34
100
AcDbEntity
  8
Defpoints
 62
     0
370
    13
100
AcDbPoint
 10
95.24926549051468
 20
77.41436760384037
 30
0.0
  0
POINT
  5
1B69
330
1A34
100
AcDbEntity
  8
Defpoints
 62
     0
370
    13
100
AcDbPoint
 10
95.24926549051468
 20
82.90606856528716
 30
0.0
  0
ENDBLK
  5
1A3F
330
1A34
100
AcDbEntity
  8
0
370
    13
100
AcDbBlockEnd
  0
BLOCK
  5
1A6D
330
1A63
100
AcDbEntity
  8
0
370
    13
100
AcDbBlockBegin
  2
*D8
 70
     1
 10
0.0
 20
0.0
 30
0.0
  3
*D8
  1

  0
LINE
  5
1B22
330
1A63
100
AcDbEntity
  8
寸法
 62
     0
370
    -2
100
AcDbLine
 10
53.46470495056383
 20
-54.92997643929642
 30
0.0
 11
12.75050098637072
 21
-54.92997643929641
 31
0.0
  0
LINE
  5
1B23
330
1A63
100
AcDbEntity
  8
寸法
 62
     0
370
    -2
100
AcDbLine
 10
35.05852779438668
 20
-29.92997643929642
 30
0.0
 11
12.75050098637072
 21
-29.92997643929641
 31
0.0
  0
LINE
  5
1B24
330
1A63
100
AcDbEntity
  8
寸法
 62
     0
370
    -2
100
AcDbLine
 10
13.25050098637072
 20
-52.92997643929641
 30
0.0
 11
13.25050098637072
 21
-31.92997643929642
 31
0.0
  0
SOLID
  5
1B25
330
1A63
100
AcDbEntity
  8
寸法
 62
     0
370
    13
100
AcDbTrace
 10
12.91716765303738
 20
-52.92997643929641
 30
0.0
 11
13.58383431970405
 21
-52.92997643929641
 31
0.0
 12
13.25050098637072
 22
-54.92997643929641
 32
0.0
 13
13.25050098637072
 23
-54.92997643929641
 33
0.0
  0
SOLID
  5
1B26
330
1A63
100
AcDbEntity
  8
寸法
 62
     0
370
    13
100
AcDbTrace
 10
12.91716765303739
 20
-31.92997643929642
 30
0.0
 11
13.58383431970406
 21
-31.92997643929642
 31
0.0
 12
13.25050098637072
 22
-29.92997643929641
 32
0.0
 13
13.25050098637072
 23
-29.92997643929641
 33
0.0
  0
MTEXT
  5
1B27
330
1A63
100
AcDbEntity
  8
寸法
 62
     0
370
    13
100
AcDbMText
 10
11.25050098637073
 20
-42.42997643929641
 30
0.0
 40
2.5
 41
0.0
 71
     5
 72
     1
  1
25
 11
0.0000000000000001
 21
1.0
 31
0.0
 73
     1
 44
1.0
  0
POINT
  5
1B28
330
1A63
100
AcDbEntity
  8
Defpoints
 62
     0
370
    13
100
AcDbPoint
 10
55.46470495056382
 20
-54.92997643929642
 30
0.0
  0
POINT
  5
1B29
330
1A63
100
AcDbEntity
  8
Defpoints
 62
     0
370
    13
100
AcDbPoint
 10
37.05852779438668
 20
-29.92997643929642
 30
0.0
  0
POINT
  5
1B2A
330
1A63
100
AcDbEntity
  8
Defpoints
 62
     0
370
    13
100
AcDbPoint
 10
13.25050098637072
 20
-29.92997643929641
 30
0.0
  0
ENDBLK
  5
1A6E
330
1A63
100
AcDbEntity
  8
0
370
    13
100
AcDbBlockEnd
  0
BLOCK
  5
1A83
330
1A79
100
AcDbEntity
  8
0
370
    13
100
AcDbBlockBegin
  2
*D9
 70
     1
 10
0.0
 20
0.0
 30
0.0
  3
*D9
  1

  0
LINE
  5
1B19
330
1A79
100
AcDbEntity
  8
寸法
 62
     0
370
    -2
100
AcDbLine
 10
61.96324753152606
 20
-65.09269612969632
 30
0.0
 11
7.750500986370724
 21
-65.09269612969631
 31
0.0
  0
LINE
  5
1B1A
330
1A79
100
AcDbEntity
  8
寸法
 62
     0
370
    -2
100
AcDbLine
 10
38.84755780464523
 20
-17.09269641604876
 30
0.0
 11
7.750500986370735
 21
-17.09269641604875
 31
0.0
  0
LINE
  5
1B1B
330
1A79
100
AcDbEntity
  8
寸法
 62
     0
370
    -2
100
AcDbLine
 10
8.25050098637072
 20
-63.09269612969631
 30
0.0
 11
8.250500986370731
 21
-19.09269641604875
 31
0.0
  0
SOLID
  5
1B1C
330
1A79
100
AcDbEntity
  8
寸法
 62
     0
370
    13
100
AcDbTrace
 10
7.917167653037387
 20
-63.09269612969631
 30
0.0
 11
8.583834319704054
 21
-63.09269612969631
 31
0.0
 12
8.25050098637072
 22
-65.09269612969631
 32
0.0
 13
8.25050098637072
 23
-65.09269612969631
 33
0.0
  0
SOLID
  5
1B1D
330
1A79
100
AcDbEntity
  8
寸法
 62
     0
370
    13
100
AcDbTrace
 10
7.917167653037397
 20
-19.09269641604875
 30
0.0
 11
8.583834319704065
 21
-19.09269641604875
 31
0.0
 12
8.250500986370731
 22
-17.09269641604875
 32
0.0
 13
8.250500986370731
 23
-17.09269641604875
 33
0.0
  0
MTEXT
  5
1B1E
330
1A79
100
AcDbEntity
  8
寸法
 62
     0
370
    13
100
AcDbMText
 10
6.250500986370732
 20
-41.09269627287253
 30
0.0
 40
2.5
 41
0.0
 71
     5
 72
     1
  1
48
 11
0.0000000000000001
 21
1.0
 31
0.0
 73
     1
 44
1.0
  0
POINT
  5
1B1F
330
1A79
100
AcDbEntity
  8
Defpoints
 62
     0
370
    13
100
AcDbPoint
 10
63.96324753152606
 20
-65.09269612969632
 30
0.0
  0
POINT
  5
1B20
330
1A79
100
AcDbEntity
  8
Defpoints
 62
     0
370
    13
100
AcDbPoint
 10
40.84755780464522
 20
-17.09269641604876
 30
0.0
  0
POINT
  5
1B21
330
1A79
100
AcDbEntity
  8
Defpoints
 62
     0
370
    13
100
AcDbPoint
 10
8.250500986370731
 20
-17.09269641604875
 30
0.0
  0
ENDBLK
  5
1A84
330
1A79
100
AcDbEntity
  8
0
370
    13
100
AcDbBlockEnd
  0
BLOCK
  5
1A99
330
1A8F
100
AcDbEntity
  8
0
370
    13
100
AcDbBlockBegin
  2
*D10
 70
     1
 10
0.0
 20
0.0
 30
0.0
  3
*D10
  1

  0
LINE
  5
1B58
330
1A8F
100
AcDbEntity
  8
寸法
 62
     0
370
    -2
100
AcDbLine
 10
61.96324753152606
 20
-65.09269612969632
 30
0.0
 11
2.750500986370723
 21
-65.09269612969631
 31
0.0
  0
LINE
  5
1B59
330
1A8F
100
AcDbEntity
  8
寸法
 62
     0
370
    -2
100
AcDbLine
 10
17.33644356202818
 20
77.90730399483853
 30
0.0
 11
2.750500986370752
 21
77.90730399483853
 31
0.0
  0
LINE
  5
1B5A
330
1A8F
100
AcDbEntity
  8
寸法
 62
     0
370
    -2
100
AcDbLine
 10
3.25050098637072
 20
-63.09269612969631
 30
0.0
 11
3.250500986370751
 21
75.90730399483852
 31
0.0
  0
SOLID
  5
1B5B
330
1A8F
100
AcDbEntity
  8
寸法
 62
     0
370
    13
100
AcDbTrace
 10
2.917167653037387
 20
-63.09269612969631
 30
0.0
 11
3.583834319704054
 21
-63.09269612969631
 31
0.0
 12
3.25050098637072
 22
-65.09269612969631
 32
0.0
 13
3.25050098637072
 23
-65.09269612969631
 33
0.0
  0
SOLID
  5
1B5C
330
1A8F
100
AcDbEntity
  8
寸法
 62
     0
370
    13
100
AcDbTrace
 10
2.917167653037418
 20
75.90730399483852
 30
0.0
 11
3.583834319704085
 21
75.90730399483852
 31
0.0
 12
3.250500986370752
 22
77.90730399483853
 32
0.0
 13
3.250500986370752
 23
77.90730399483853
 33
0.0
  0
MTEXT
  5
1B5D
330
1A8F
100
AcDbEntity
  8
寸法
 62
     0
370
    13
100
AcDbMText
 10
1.250500986370735
 20
6.40730393257111
 30
0.0
 40
2.5
 41
0.0
 71
     5
 72
     1
  1
143
 11
0.0000000000000001
 21
1.0
 31
0.0
 73
     1
 44
1.0
  0
POINT
  5
1B5E
330
1A8F
100
AcDbEntity
  8
Defpoints
 62
     0
370
    13
100
AcDbPoint
 10
63.96324753152606
 20
-65.09269612969632
 30
0.0
  0
POINT
  5
1B5F
330
1A8F
100
AcDbEntity
  8
Defpoints
 62
     0
370
    13
100
AcDbPoint
 10
19.33644356202817
 20
77.90730399483853
 30
0.0
  0
POINT
  5
1B60
330
1A8F
100
AcDbEntity
  8
Defpoints
 62
     0
370
    13
100
AcDbPoint
 10
3.250500986370752
 20
77.90730399483853
 30
0.0
  0
ENDBLK
  5
1A9A
330
1A8F
100
AcDbEntity
  8
0
370
    13
100
AcDbBlockEnd
  0
BLOCK
  5
1C6C
330
1C62
100
AcDbEntity
  8
0
370
    13
100
AcDbBlockBegin
  2
*D11
 70
     1
 10
0.0
 20
0.0
 30
0.0
  3
*D11
  1

  0
LINE
  5
1C6E
330
1C62
100
AcDbEntity
  8
寸法
 62
     0
370
    -2
100
AcDbLine
 10
65.00550362801823
 20
135.2557860253131
 30
0.0
 11
65.00550362801823
 21
138.9903645721707
 31
0.0
  0
LINE
  5
1C6F
330
1C62
100
AcDbEntity
  8
寸法
 62
     0
370
    -2
100
AcDbLine
 10
48.50550362801823
 20
135.4903645007422
 30
0.0
 11
48.50550362801823
 21
138.9903645721707
 31
0.0
  0
LINE
  5
1C70
330
1C62
100
AcDbEntity
  8
寸法
 62
     0
370
    -2
100
AcDbLine
 10
63.00550362801823
 20
138.4903645721707
 30
0.0
 11
50.50550362801823
 21
138.4903645721707
 31
0.0
  0
SOLID
  5
1C71
330
1C62
100
AcDbEntity
  8
寸法
 62
     0
370
    13
100
AcDbTrace
 10
63.00550362801823
 20
138.823697905504
 30
0.0
 11
63.00550362801823
 21
138.1570312388374
 31
0.0
 12
65.00550362801823
 22
138.4903645721707
 32
0.0
 13
65.00550362801823
 23
138.4903645721707
 33
0.0
  0
SOLID
  5
1C72
330
1C62
100
AcDbEntity
  8
寸法
 62
     0
370
    13
100
AcDbTrace
 10
50.50550362801823
 20
138.823697905504
 30
0.0
 11
50.50550362801823
 21
138.1570312388374
 31
0.0
 12
48.50550362801823
 22
138.4903645721707
 32
0.0
 13
48.50550362801823
 23
138.4903645721707
 33
0.0
  0
MTEXT
  5
1C73
330
1C62
100
AcDbEntity
  8
寸法
 62
     0
370
    13
100
AcDbMText
 10
56.75550362801823
 20
140.4903645721707
 30
0.0
 40
2.5
 41
0.0
 71
     5
 72
     1
  1
{\fMS UI Gothic|b0|i0|c128|p17;\U+2260}16.5
 73
     1
 44
1.0
  0
POINT
  5
1C74
330
1C62
100
AcDbEntity
  8
Defpoints
 62
     0
370
    13
100
AcDbPoint
 10
65.00550362801823
 20
133.2557860253131
 30
0.0
  0
POINT
  5
1C75
330
1C62
100
AcDbEntity
  8
Defpoints
 62
     0
370
    13
100
AcDbPoint
 10
48.50550362801823
 20
133.4903645007422
 30
0.0
  0
POINT
  5
1C76
330
1C62
100
AcDbEntity
  8
Defpoints
 62
     0
370
    13
100
AcDbPoint
 10
48.50550362801823
 20
138.4903645721707
 30
0.0
  0
ENDBLK
  5
1C6D
330
1C62
100
AcDbEntity
  8
0
370
    13
100
AcDbBlockEnd
  0
ENDSEC
  0
SECTION
  2
ENTITIES
  0
LINE
  5
7DF
330
A
100
AcDbEntity
  8
0
370
    13
100
AcDbLine
 10
92.22864023740587
 20
-22.34436279306216
 30
0.0
 11
92.22864023740587
 21
-41.92468575278456
 31
0.0
  0
LINE
  5
7DE
330
A
100
AcDbEntity
  8
0
370
    13
100
AcDbLine
 10
92.22864023740587
 20
-41.92468575278456
 30
0.0
 11
92.73146006481496
 21
-42.42874100974506
 31
0.0
  0
LINE
  5
7DD
330
A
100
AcDbEntity
  8
0
370
    13
100
AcDbLine
 10
92.73269549436635
 20
-42.42997643929643
 30
0.0
 11
92.22987566695724
 21
-42.93279626670556
 31
0.0
  0
LINE
  5
7DC
330
A
100
AcDbEntity
  8
0
370
    13
100
AcDbLine
 10
93.03166944579881
 20
54.06579201428055
 30
0.0
 11
93.03166944579881
 21
33.3155172694072
 31
0.0
  0
LINE
  5
7DB
330
A
100
AcDbEntity
  8
0
370
    13
100
AcDbLine
 10
22.72646225099771
 20
46.63221240366477
 30
0.0
 11
40.04656684648186
 21
37.67287729710241
 31
0.0
  0
LINE
  5
7DA
330
A
100
AcDbEntity
  8
0
370
    13
100
AcDbLine
 10
38.62088114419659
 20
41.80291828734483
 30
0.0
 11
21.80544952044859
 21
50.50034232901593
 31
0.0
  0
LINE
  5
7D9
330
A
100
AcDbEntity
  8
0
370
    13
100
AcDbLine
 10
79.20721276592669
 20
52.53138851147438
 30
0.0
 11
78.2262817021359
 21
44.7444760491657
 31
0.0
  0
LINE
  5
7D8
330
A
100
AcDbEntity
  8
0
370
    13
100
AcDbLine
 10
18.24926555681931
 20
77.4057195969808
 30
0.0
 11
18.24926555681931
 21
33.3155172694072
 31
0.0
  0
LINE
  5
7D7
330
A
100
AcDbEntity
  8
0
370
    13
100
AcDbLine
 10
18.24926555681931
 20
33.3155172694072
 30
0.0
 11
18.75270309900407
 21
32.81146201244672
 31
0.0
  0
LINE
  5
7D6
330
A
100
AcDbEntity
  8
0
370
    13
100
AcDbLine
 10
18.75270309900407
 20
32.81146201244672
 30
0.0
 11
18.24926555681931
 21
32.30617132593485
 31
0.0
  0
SPLINE
  5
7D5
330
A
100
AcDbEntity
  8
0
370
    13
100
AcDbSpline
210
0.0
220
0.0
230
1.0
 70
     8
 71
     3
 72
     8
 73
     4
 74
     0
 42
0.0000000001
 43
0.0000000001
 40
0.0
 40
0.0
 40
0.0
 40
0.0
 40
1.0
 40
1.0
 40
1.0
 40
1.0
 10
40.80759145012808
 20
16.61127430528288
 30
0.0
 10
41.11768426752291
 20
23.35671965578351
 30
0.0
 10
41.04602935354319
 20
30.11328387224651
 30
0.0
 10
40.58644956043218
 20
36.85008121588752
 30
0.0
  0
SPLINE
  5
7D4
330
A
100
AcDbEntity
  8
0
370
    13
100
AcDbSpline
210
0.0
220
0.0
230
1.0
 70
     8
 71
     3
 72
     8
 73
     4
 74
     0
 42
0.0000000001
 43
0.0000000001
 40
0.0
 40
0.0
 40
0.0
 40
0.0
 40
1.0
 40
1.0
 40
1.0
 40
1.0
 10
40.08115887392034
 20
42.79496821709794
 30
0.0
 10
39.32754684758236
 20
50.17789521610738
 30
0.0
 10
38.11435502813333
 20
57.50893417395915
 30
0.0
 10
36.44652513377877
 20
64.65238033814968
 30
0.0
  0
SPLINE
  5
7D3
330
A
100
AcDbEntity
  8
0
370
    13
100
AcDbSpline
210
0.0
220
0.0
230
1.0
 70
     8
 71
     3
 72
    11
 73
     7
 74
     0
 42
0.0000000001
 43
0.0000000001
 40
0.0
 40
0.0
 40
0.0
 40
0.0
 40
1.0
 40
1.0
 40
1.0
 40
2.0
 40
2.0
 40
2.0
 40
2.0
 10
38.62088114419657
 20
41.80291828734485
 30
0.0
 10
39.1125821056433
 20
41.54718437021044
 30
0.0
 10
39.71917801536784
 20
41.73991138022476
 30
0.0
 10
39.97491193250215
 20
42.23284777122288
 30
0.0
 10
40.06262743064974
 20
42.4058079084152
 30
0.0
 10
40.10092574674229
 20
42.60224120708361
 30
0.0
 10
40.08115887392034
 20
42.79496821709794
 30
0.0
  0
LINE
  5
7D2
330
A
100
AcDbEntity
  8
0
370
    13
100
AcDbLine
 10
75.46633208436699
 20
22.82919123734692
 30
0.0
 11
75.08952607119801
 21
19.84068715257385
 31
0.0
  0
SPLINE
  5
7D1
330
A
100
AcDbEntity
  8
0
370
    13
100
AcDbSpline
210
0.0
220
0.0
230
1.0
 70
     8
 71
     3
 72
     8
 73
     4
 74
     0
 42
0.0000000001
 43
0.0000000001
 40
0.0
 40
0.0
 40
0.0
 40
0.0
 40
1.0
 40
1.0
 40
1.0
 40
1.0
 10
40.58644956043218
 20
36.85008121588752
 30
0.0
 10
40.5629763989561
 20
37.19970777892624
 30
0.0
 10
40.35789509342805
 20
37.51103602587248
 30
0.0
 10
40.04656684648188
 20
37.67287729710242
 30
0.0
  0
LINE
  5
7D0
330
A
100
AcDbEntity
  8
0
370
    13
100
AcDbLine
 10
93.03166944579881
 20
33.3155172694072
 30
0.0
 11
93.53696013231068
 21
32.81146201244672
 31
0.0
  0
LINE
  5
7CF
330
A
100
AcDbEntity
  8
0
370
    13
100
AcDbLine
 10
93.53696013231068
 20
32.81146201244672
 30
0.0
 11
93.03166944579881
 21
32.30617132593485
 31
0.0
  0
LINE
  5
7CE
330
A
100
AcDbEntity
  8
0
370
    13
100
AcDbLine
 10
76.09393029646486
 20
27.80920775893443
 30
0.0
 11
75.7183597128472
 21
24.82070367416138
 31
0.0
  0
LINE
  5
7CD
330
A
100
AcDbEntity
  8
0
370
    13
100
AcDbLine
 10
18.24926555681931
 20
32.30617132593485
 30
0.0
 11
18.24926555681931
 21
-2.472405974787273
 31
0.0
  0
SPLINE
  5
7CC
330
A
100
AcDbEntity
  8
0
370
    13
100
AcDbSpline
210
0.0
220
0.0
230
1.0
 70
     8
 71
     3
 72
     8
 73
     4
 74
     0
 42
0.0000000001
 43
0.0000000001
 40
0.0
 40
0.0
 40
0.0
 40
0.0
 40
1.0
 40
1.0
 40
1.0
 40
1.0
 10
92.22864023740584
 20
-22.34436279306213
 30
0.0
 10
92.22864023740584
 20
-22.06515571445168
 30
0.0
 10
92.00379205905585
 20
-21.84154296565304
 30
0.0
 10
91.72582040999675
 20
-21.84154296565304
 30
0.0
  0
LINE
  5
7CB
330
A
100
AcDbEntity
  8
0
370
    13
100
AcDbLine
 10
44.02835629055945
 20
-21.84154296565304
 30
0.0
 11
91.72705583954812
 21
-21.84154296565304
 31
0.0
  0
SPLINE
  5
7CA
330
A
100
AcDbEntity
  8
0
370
    13
100
AcDbSpline
210
0.0
220
0.0
230
1.0
 70
     8
 71
     3
 72
    11
 73
     7
 74
     0
 42
0.0000000001
 43
0.0000000001
 40
0.0
 40
0.0
 40
0.0
 40
0.0
 40
1.0
 40
1.0
 40
1.0
 40
2.0
 40
2.0
 40
2.0
 40
2.0
 10
44.02835629055942
 20
-21.84154296565304
 30
0.0
 10
41.81076024584354
 20
-21.84154296565304
 30
0.0
 10
40.01197481904341
 20
-23.63909296290187
 30
0.0
 10
40.01197481904341
 20
-25.85792443716911
 30
0.0
 10
40.01197481904341
 20
-26.71531254582242
 30
0.0
 10
40.28624017944838
 20
-27.5492274929997
 30
0.0
 10
40.79400172506296
 20
-28.23983261221763
 30
0.0
  0
LINE
  5
7C9
330
A
100
AcDbEntity
  8
0
370
    13
100
AcDbLine
 10
64.06578818429011
 20
-59.85447483187163
 30
0.0
 11
40.79400172506299
 21
-28.23983261221766
 31
0.0
  0
SPLINE
  5
7C8
330
A
100
AcDbEntity
  8
0
370
    13
100
AcDbSpline
210
0.0
220
0.0
230
1.0
 70
     8
 71
     3
 72
     8
 73
     4
 74
     0
 42
0.0000000001
 43
0.0000000001
 40
0.0
 40
0.0
 40
0.0
 40
0.0
 40
1.0
 40
1.0
 40
1.0
 40
1.0
 10
64.06578818429011
 20
-59.85447483187163
 30
0.0
 10
64.63161491881931
 20
-60.62538287192881
 30
0.0
 10
65.53347849132212
 20
-61.08249180593713
 30
0.0
 10
66.49217182318813
 20
-61.08249180593713
 30
0.0
  0
LINE
  5
7C7
330
A
100
AcDbEntity
  8
0
370
    13
100
AcDbLine
 10
85.52519949165198
 20
-61.08125637638575
 30
0.0
 11
66.49217182318811
 21
-61.08125637638575
 31
0.0
  0
SPLINE
  5
7C6
330
A
100
AcDbEntity
  8
0
370
    13
100
AcDbSpline
210
0.0
220
0.0
230
1.0
 70
     8
 71
     3
 72
     8
 73
     4
 74
     0
 42
0.0000000001
 43
0.0000000001
 40
0.0
 40
0.0
 40
0.0
 40
0.0
 40
1.0
 40
1.0
 40
1.0
 40
1.0
 10
85.52519949165196
 20
-61.08125637638573
 30
0.0
 10
86.07990736021879
 20
-61.08125637638573
 30
0.0
 10
86.52960371691881
 20
-60.6315600196857
 30
0.0
 10
86.52960371691881
 20
-60.07685215111887
 30
0.0
  0
LINE
  5
7C5
330
A
100
AcDbEntity
  8
0
370
    13
100
AcDbLine
 10
86.52960371691882
 20
-58.0680437005852
 30
0.0
 11
86.52960371691882
 21
-60.07808758067028
 31
0.0
  0
SPLINE
  5
7C4
330
A
100
AcDbEntity
  8
0
370
    13
100
AcDbSpline
210
0.0
220
0.0
230
1.0
 70
     8
 71
     3
 72
     8
 73
     4
 74
     0
 42
0.0000000001
 43
0.0000000001
 40
0.0
 40
0.0
 40
0.0
 40
0.0
 40
1.0
 40
1.0
 40
1.0
 40
1.0
 10
87.53277251263426
 20
-57.06363947531837
 30
0.0
 10
86.97930007361884
 20
-57.06363947531837
 30
0.0
 10
86.52960371691881
 20
-57.51333583201841
 30
0.0
 10
86.52960371691881
 20
-58.06927913013657
 30
0.0
  0
LINE
  5
7C3
330
A
100
AcDbEntity
  8
0
370
    13
100
AcDbLine
 10
91.22423601213906
 20
-57.06363947531841
 30
0.0
 11
87.5327725126343
 21
-57.06363947531841
 31
0.0
  0
SPLINE
  5
7C2
330
A
100
AcDbEntity
  8
0
370
    13
100
AcDbSpline
210
0.0
220
0.0
230
1.0
 70
     8
 71
     3
 72
     8
 73
     4
 74
     0
 42
0.0000000001
 43
0.0000000001
 40
0.0
 40
0.0
 40
0.0
 40
0.0
 40
1.0
 40
1.0
 40
1.0
 40
1.0
 10
91.22423601213904
 20
-57.06363947531837
 30
0.0
 10
91.77770845115446
 20
-57.06363947531837
 30
0.0
 10
92.22987566695724
 20
-56.61517854816974
 30
0.0
 10
92.22987566695724
 20
-56.05923525005152
 30
0.0
  0
LINE
  5
7C1
330
A
100
AcDbEntity
  8
0
370
    13
100
AcDbLine
 10
92.22864023740587
 20
-42.93279626670556
 30
0.0
 11
92.22864023740587
 21
-56.06047067960292
 31
0.0
  0
SPLINE
  5
7C0
330
A
100
AcDbEntity
  8
0
370
    13
100
AcDbSpline
210
0.0
220
0.0
230
1.0
 70
     8
 71
     3
 72
    11
 73
     7
 74
     0
 42
0.0000000001
 43
0.0000000001
 40
0.0
 40
0.0
 40
0.0
 40
0.0
 40
1.0
 40
1.0
 40
1.0
 40
2.0
 40
2.0
 40
2.0
 40
2.0
 10
22.72646225099771
 20
46.6322124036648
 30
0.0
 10
22.23414357477531
 20
46.8879463207991
 30
0.0
 10
21.62816537982644
 20
46.69274845168209
 30
0.0
 10
21.37243146269213
 20
46.20104749023537
 30
0.0
 10
21.29954111916106
 20
46.05897309182732
 30
0.0
 10
21.26124280306851
 20
45.90083810925151
 30
0.0
 10
21.26124280306851
 20
45.73899683802157
 30
0.0
  0
LINE
  5
7BF
330
A
100
AcDbEntity
  8
0
370
    13
100
AcDbLine
 10
21.26000737351712
 20
11.41876390085905
 30
0.0
 11
21.26000737351712
 21
45.74023226757293
 31
0.0
  0
LINE
  5
7BE
330
A
100
AcDbEntity
  8
0
370
    13
100
AcDbLine
 10
21.26000737351712
 20
7.58275514384359
 30
0.0
 11
21.26000737351712
 21
11.41876390085905
 31
0.0
  0
SPLINE
  5
7BD
330
A
100
AcDbEntity
  8
0
370
    13
100
AcDbSpline
210
0.0
220
0.0
230
1.0
 70
     8
 71
     3
 72
    11
 73
     7
 74
     0
 42
0.0000000001
 43
0.0000000001
 40
0.0
 40
0.0
 40
0.0
 40
0.0
 40
1.0
 40
1.0
 40
1.0
 40
2.0
 40
2.0
 40
2.0
 40
2.0
 10
21.26000737351711
 20
7.582755143843575
 30
0.0
 10
21.26000737351711
 20
7.029282704828153
 30
0.0
 10
21.70908601544147
 20
6.578350918576722
 30
0.0
 10
22.26441159878396
 20
6.578350918576722
 30
0.0
 10
22.42501744046256
 20
6.578350918576722
 30
0.0
 10
22.58315242303837
 20
6.61788466422073
 30
0.0
 10
22.72522682144631
 20
6.690775007751744
 30
0.0
  0
LINE
  5
7BC
330
A
100
AcDbEntity
  8
0
370
    13
100
AcDbLine
 10
40.26647330662638
 20
15.76500506259187
 30
0.0
 11
22.72522682144634
 21
6.690775007751744
 31
0.0
  0
SPLINE
  5
7BB
330
A
100
AcDbEntity
  8
0
370
    13
100
AcDbSpline
210
0.0
220
0.0
230
1.0
 70
     8
 71
     3
 72
     8
 73
     4
 74
     0
 42
0.0000000001
 43
0.0000000001
 40
0.0
 40
0.0
 40
0.0
 40
0.0
 40
1.0
 40
1.0
 40
1.0
 40
1.0
 10
40.26647330662638
 20
15.76500506259188
 30
0.0
 10
40.58521413088079
 20
15.92931719292457
 30
0.0
 10
40.79153086596022
 20
16.25176430583312
 30
0.0
 10
40.80759145012808
 20
16.61127430528288
 30
0.0
  0
SPLINE
  5
7BA
330
A
100
AcDbEntity
  8
0
370
    13
100
AcDbSpline
210
0.0
220
0.0
230
1.0
 70
     8
 71
     3
 72
    11
 73
     7
 74
     0
 42
0.0000000001
 43
0.0000000001
 40
0.0
 40
0.0
 40
0.0
 40
0.0
 40
1.0
 40
1.0
 40
1.0
 40
2.0
 40
2.0
 40
2.0
 40
2.0
 10
76.70670335394624
 20
13.43004321049549
 30
0.0
 10
76.63875472862065
 20
12.87904163058281
 30
0.0
 10
77.02791503730338
 20
12.37622180317371
 30
0.0
 10
77.57891661721607
 20
12.30950860739952
 30
0.0
 10
77.72346187472675
 20
12.29221259368032
 30
0.0
 10
77.86800713223755
 20
12.30456688919404
 30
0.0
 10
78.00513981244001
 20
12.34780692349213
 30
0.0
  0
LINE
  5
7B9
330
A
100
AcDbEntity
  8
0
370
    13
100
AcDbLine
 10
92.32994546061854
 20
16.86083107466037
 30
0.0
 11
78.00513981244001
 21
12.34780692349213
 31
0.0
  0
SPLINE
  5
7B8
330
A
100
AcDbEntity
  8
0
370
    13
100
AcDbSpline
210
0.0
220
0.0
230
1.0
 70
     8
 71
     3
 72
     8
 73
     4
 74
     0
 42
0.0000000001
 43
0.0000000001
 40
0.0
 40
0.0
 40
0.0
 40
0.0
 40
1.0
 40
1.0
 40
1.0
 40
1.0
 10
92.32994546061854
 20
16.86083107466035
 30
0.0
 10
92.74752064898285
 20
16.99302203665738
 30
0.0
 10
93.0316694457988
 20
17.37971148623737
 30
0.0
 10
93.0316694457988
 20
17.81952440652642
 30
0.0
  0
LINE
  5
7B7
330
A
100
AcDbEntity
  8
0
370
    13
100
AcDbLine
 10
93.03166944579881
 20
32.30617132593485
 30
0.0
 11
93.03166944579881
 21
17.8195244065264
 31
0.0
  0
SPLINE
  5
7B6
330
A
100
AcDbEntity
  8
0
370
    13
100
AcDbSpline
210
0.0
220
0.0
230
1.0
 70
     8
 71
     3
 72
    11
 73
     7
 74
     0
 42
0.0000000001
 43
0.0000000001
 40
0.0
 40
0.0
 40
0.0
 40
0.0
 40
1.0
 40
1.0
 40
1.0
 40
2.0
 40
2.0
 40
2.0
 40
2.0
 10
93.0316694457988
 20
54.06579201428057
 30
0.0
 10
93.0316694457988
 20
54.4537168934119
 30
0.0
 10
92.71787033974987
 20
54.76875142901222
 30
0.0
 10
92.32871003106714
 20
54.76875142901222
 30
0.0
 10
92.26693855349845
 20
54.76875142901222
 30
0.0
 10
92.2039316463784
 20
54.75886799260124
 30
0.0
 10
92.1433955983611
 20
54.74404283798473
 30
0.0
  0
LINE
  5
7B5
330
A
100
AcDbEntity
  8
0
370
    13
100
AcDbLine
 10
83.4682092886147
 20
52.37819524710401
 30
0.0
 11
92.14463102791247
 21
54.74404283798474
 31
0.0
  0
SPLINE
  5
7B4
330
A
100
AcDbEntity
  8
0
370
    13
100
AcDbSpline
210
0.0
220
0.0
230
1.0
 70
     8
 71
     3
 72
     8
 73
     4
 74
     0
 42
0.0000000001
 43
0.0000000001
 40
0.0
 40
0.0
 40
0.0
 40
0.0
 40
1.0
 40
1.0
 40
1.0
 40
1.0
 10
83.46820928861466
 20
52.37819524710401
 30
0.0
 10
82.7318932759959
 20
52.17682023023011
 30
0.0
 10
82.17100825967225
 20
51.57640146826246
 30
0.0
 10
82.02522757261016
 20
50.82649573057862
 30
0.0
  0
SPLINE
  5
7B3
330
A
100
AcDbEntity
  8
0
370
    13
100
AcDbSpline
210
0.0
220
0.0
230
1.0
 70
     8
 71
     3
 72
     8
 73
     4
 74
     0
 42
0.0000000001
 43
0.0000000001
 40
0.0
 40
0.0
 40
0.0
 40
0.0
 40
1.0
 40
1.0
 40
1.0
 40
1.0
 10
82.02522757261016
 20
50.82649573057862
 30
0.0
 10
80.03989228355255
 20
38.39189729600193
 30
0.0
 10
78.26581544777991
 20
25.92394226353812
 30
0.0
 10
76.70670335394624
 20
13.43004321049549
 30
0.0
  0
LINE
  5
7B2
330
A
100
AcDbEntity
  8
0
370
    13
100
AcDbLine
 10
91.22423601213906
 20
-17.16269726887014
 30
0.0
 11
74.45698614089462
 21
-17.16269726887014
 31
0.0
  0
SPLINE
  5
7B1
330
A
100
AcDbEntity
  8
0
370
    13
100
AcDbSpline
210
0.0
220
0.0
230
1.0
 70
     8
 71
     3
 72
     8
 73
     4
 74
     0
 42
0.0000000001
 43
0.0000000001
 40
0.0
 40
0.0
 40
0.0
 40
0.0
 40
1.0
 40
1.0
 40
1.0
 40
1.0
 10
91.22423601213904
 20
-17.16269726887017
 30
0.0
 10
91.77770845115446
 20
-17.16269726887017
 30
0.0
 10
92.22987566695724
 20
-16.71300091217014
 30
0.0
 10
92.22987566695724
 20
-16.15829304360338
 30
0.0
  0
LINE
  5
7B0
330
A
100
AcDbEntity
  8
0
370
    13
100
AcDbLine
 10
92.22864023740587
 20
12.72337750710973
 30
0.0
 11
92.22864023740587
 21
-16.15952847315472
 31
0.0
  0
SPLINE
  5
7AF
330
A
100
AcDbEntity
  8
0
370
    13
100
AcDbSpline
210
0.0
220
0.0
230
1.0
 70
     8
 71
     3
 72
    11
 73
     7
 74
     0
 42
0.0000000001
 43
0.0000000001
 40
0.0
 40
0.0
 40
0.0
 40
0.0
 40
1.0
 40
1.0
 40
1.0
 40
2.0
 40
2.0
 40
2.0
 40
2.0
 10
92.22864023740584
 20
12.72337750710975
 30
0.0
 10
92.22864023740584
 20
13.27684994612517
 30
0.0
 10
91.77894388070587
 20
13.7277817323766
 30
0.0
 10
91.22423601213904
 20
13.7277817323766
 30
0.0
 10
91.121695359375
 20
13.7277817323766
 30
0.0
 10
91.02039013616234
 20
13.71172114820874
 30
0.0
 10
90.92279120160384
 20
13.68083540942442
 30
0.0
  0
LINE
  5
7AE
330
A
100
AcDbEntity
  8
0
370
    13
100
AcDbLine
 10
76.78453541568275
 20
9.227111876722068
 30
0.0
 11
90.92155577205247
 21
13.68083540942439
 31
0.0
  0
SPLINE
  5
7AD
330
A
100
AcDbEntity
  8
0
370
    13
100
AcDbSpline
210
0.0
220
0.0
230
1.0
 70
     8
 71
     3
 72
     8
 73
     4
 74
     0
 42
0.0000000001
 43
0.0000000001
 40
0.0
 40
0.0
 40
0.0
 40
0.0
 40
1.0
 40
1.0
 40
1.0
 40
1.0
 10
76.78453541568273
 20
9.227111876722039
 30
0.0
 10
76.40896483206512
 20
9.107275210238787
 30
0.0
 10
76.1371703307629
 20
8.779886379124752
 30
0.0
 10
76.09022400781071
 20
8.389490640890675
 30
0.0
  0
SPLINE
  5
7AC
330
A
100
AcDbEntity
  8
0
370
    13
100
AcDbSpline
210
0.0
220
0.0
230
1.0
 70
     8
 71
     3
 72
     8
 73
     4
 74
     0
 42
0.0000000001
 43
0.0000000001
 40
0.0
 40
0.0
 40
0.0
 40
0.0
 40
1.0
 40
1.0
 40
1.0
 40
1.0
 10
76.09022400781071
 20
8.388255211339275
 30
0.0
 10
75.12288266908507
 20
0.3381962545879893
 30
0.0
 10
74.2469631171611
 20
-7.721746138574269
 30
0.0
 10
73.45875906338466
 20
-16.06192953859616
 30
0.0
  0
SPLINE
  5
7AB
330
A
100
AcDbEntity
  8
0
370
    13
100
AcDbSpline
210
0.0
220
0.0
230
1.0
 70
     8
 71
     3
 72
    11
 73
     7
 74
     0
 42
0.0000000001
 43
0.0000000001
 40
0.0
 40
0.0
 40
0.0
 40
0.0
 40
1.0
 40
1.0
 40
1.0
 40
2.0
 40
2.0
 40
2.0
 40
2.0
 10
73.45875906338466
 20
-16.06192953859616
 30
0.0
 10
73.40440016312419
 20
-16.61293111850883
 30
0.0
 10
73.80838562642344
 20
-17.10463207995562
 30
0.0
 10
74.36062263588747
 20
-17.15899098021608
 30
0.0
 10
74.39150837467178
 20
-17.16269726887017
 30
0.0
 10
74.42486497255891
 20
-17.16269726887017
 30
0.0
 10
74.45822157044597
 20
-17.16269726887017
 30
0.0
  0
SPLINE
  5
7AA
330
A
100
AcDbEntity
  8
0
370
    13
100
AcDbSpline
210
0.0
220
0.0
230
1.0
 70
     8
 71
     3
 72
     8
 73
     4
 74
     0
 42
0.0000000001
 43
0.0000000001
 40
0.0
 40
0.0
 40
0.0
 40
0.0
 40
1.0
 40
1.0
 40
1.0
 40
1.0
 10
36.44652513377877
 20
64.65238033814968
 30
0.0
 10
36.39463709262111
 20
64.87969937560241
 30
0.0
 10
36.19079121664447
 20
65.04154064683241
 30
0.0
 10
35.95667731665907
 20
65.04154064683241
 30
0.0
  0
LINE
  5
7A9
330
A
100
AcDbEntity
  8
0
370
    13
100
AcDbLine
 10
22.26688245788672
 20
65.04154064683238
 30
0.0
 11
35.95667731665909
 21
65.04154064683238
 31
0.0
  0
SPLINE
  5
7A8
330
A
100
AcDbEntity
  8
0
370
    13
100
AcDbSpline
210
0.0
220
0.0
230
1.0
 70
     8
 71
     3
 72
     8
 73
     4
 74
     0
 42
0.0000000001
 43
0.0000000001
 40
0.0
 40
0.0
 40
0.0
 40
0.0
 40
1.0
 40
1.0
 40
1.0
 40
1.0
 10
22.2668824578867
 20
65.04154064683241
 30
0.0
 10
21.71279230409556
 20
65.04154064683241
 30
0.0
 10
21.26247823261985
 20
64.59307971968373
 30
0.0
 10
21.26247823261985
 20
64.03713642156557
 30
0.0
  0
LINE
  5
7A7
330
A
100
AcDbEntity
  8
0
370
    13
100
AcDbLine
 10
21.26247823261987
 20
51.3910870355564
 30
0.0
 11
21.26247823261987
 21
64.0383718511169
 31
0.0
  0
SPLINE
  5
7A6
330
A
100
AcDbEntity
  8
0
370
    13
100
AcDbSpline
210
0.0
220
0.0
230
1.0
 70
     8
 71
     3
 72
     8
 73
     4
 74
     0
 42
0.0000000001
 43
0.0000000001
 40
0.0
 40
0.0
 40
0.0
 40
0.0
 40
1.0
 40
1.0
 40
1.0
 40
1.0
 10
21.26247823261985
 20
51.39108703555642
 30
0.0
 10
21.26247823261985
 20
51.0155164519388
 30
0.0
 10
21.47250125635338
 20
50.6708316071055
 30
0.0
 10
21.80668494999997
 20
50.49910689946458
 30
0.0
  0
SPLINE
  5
7A5
330
A
100
AcDbEntity
  8
0
370
    13
100
AcDbSpline
210
0.0
220
0.0
230
1.0
 70
     8
 71
     3
 72
    11
 73
     7
 74
     0
 42
0.0000000001
 43
0.0000000001
 40
0.0
 40
0.0
 40
0.0
 40
0.0
 40
1.0
 40
1.0
 40
1.0
 40
2.0
 40
2.0
 40
2.0
 40
2.0
 10
40.4406688733701
 20
10.73557135894939
 30
0.0
 10
40.48514433721954
 20
11.28904379796487
 30
0.0
 10
40.07251086706071
 20
11.7733321821033
 30
0.0
 10
39.51903842804529
 20
11.8165722164014
 30
0.0
 10
39.33248856578785
 20
11.83139737101791
 30
0.0
 10
39.14593870353036
 20
11.79309905492531
 30
0.0
 10
38.97915571409493
 20
11.70785441588052
 30
0.0
  0
LINE
  5
7A4
330
A
100
AcDbEntity
  8
0
370
    13
100
AcDbLine
 10
24.08852333138726
 20
4.006186592616648
 30
0.0
 11
38.97915571409494
 21
11.70661898632913
 31
0.0
  0
SPLINE
  5
7A3
330
A
100
AcDbEntity
  8
0
370
    13
100
AcDbSpline
210
0.0
220
0.0
230
1.0
 70
     8
 71
     3
 72
    11
 73
     7
 74
     0
 42
0.0000000001
 43
0.0000000001
 40
0.0
 40
0.0
 40
0.0
 40
0.0
 40
1.0
 40
1.0
 40
1.0
 40
2.0
 40
2.0
 40
2.0
 40
2.0
 10
24.08852333138725
 20
4.00618659261662
 30
0.0
 10
21.6269299502751
 20
2.729987866047598
 30
0.0
 10
20.66144175587652
 20
-0.2980499643694778
 30
0.0
 10
21.93578733811853
 20
-2.761496489808758
 30
0.0
 10
22.17360752675796
 20
-3.219840853368362
 30
0.0
 10
22.47937634072298
 20
-3.638651471284072
 30
0.0
 10
22.84506348792962
 20
-4.003103188939315
 30
0.0
  0
LINE
  5
7A2
330
A
100
AcDbEntity
  8
0
370
    13
100
AcDbLine
 10
30.79999436922511
 20
-11.95926949978621
 30
0.0
 11
22.84629891748097
 21
-4.004338618490686
 31
0.0
  0
SPLINE
  5
7A1
330
A
100
AcDbEntity
  8
0
370
    13
100
AcDbSpline
210
0.0
220
0.0
230
1.0
 70
     8
 71
     3
 72
    11
 73
     7
 74
     0
 42
0.0000000001
 43
0.0000000001
 40
0.0
 40
0.0
 40
0.0
 40
0.0
 40
1.0
 40
1.0
 40
1.0
 40
2.0
 40
2.0
 40
2.0
 40
2.0
 10
30.79999436922509
 20
-11.95926949978618
 30
0.0
 10
32.36898989946979
 20
-13.52826503003083
 30
0.0
 10
34.91150391619692
 20
-13.52826503003083
 30
0.0
 10
36.47988173166584
 20
-11.95926949978618
 30
0.0
 10
37.04200217754089
 20
-11.39714905391113
 30
0.0
 10
37.42374990891539
 20
-10.68183534366576
 30
0.0
 10
37.57941403238851
 20
-9.902279296748895
 30
0.0
  0
SPLINE
  5
7A0
330
A
100
AcDbEntity
  8
0
370
    13
100
AcDbSpline
210
0.0
220
0.0
230
1.0
 70
     8
 71
     3
 72
     8
 73
     4
 74
     0
 42
0.0000000001
 43
0.0000000001
 40
0.0
 40
0.0
 40
0.0
 40
0.0
 40
1.0
 40
1.0
 40
1.0
 40
1.0
 10
37.57941403238851
 20
-9.902279296748895
 30
0.0
 10
38.93591567979683
 20
-3.08517903226865
 30
0.0
 10
39.89213815256016
 20
3.807282434845466
 30
0.0
 10
40.4406688733701
 20
10.73557135894939
 30
0.0
  0
SPLINE
  5
79F
330
A
100
AcDbEntity
  8
0
370
    13
100
AcDbSpline
210
0.0
220
0.0
230
1.0
 70
     8
 71
     3
 72
     8
 73
     4
 74
     0
 42
0.0000000001
 43
0.0000000001
 40
0.0
 40
0.0
 40
0.0
 40
0.0
 40
1.0
 40
1.0
 40
1.0
 40
1.0
 10
95.24926549051469
 20
77.4143676038404
 30
0.0
 10
95.24926549051469
 20
77.69233925289945
 30
0.0
 10
95.02565274171599
 20
77.9159520016981
 30
0.0
 10
94.74891652220827
 20
77.9159520016981
 30
0.0
  0
LINE
  5
79E
330
A
100
AcDbEntity
  8
0
370
    13
100
AcDbLine
 10
94.74891652220831
 20
77.9159520016981
 30
0.0
 11
93.55919786423543
 21
77.9159520016981
 31
0.0
  0
LINE
  5
79D
330
A
100
AcDbEntity
  8
0
370
    13
100
AcDbLine
 10
93.55919786423543
 20
77.9159520016981
 30
0.0
 11
93.55919786423543
 21
76.19994035483999
 31
0.0
  0
SPLINE
  5
79C
330
A
100
AcDbEntity
  8
0
370
    13
100
AcDbSpline
210
0.0
220
0.0
230
1.0
 70
     8
 71
     3
 72
     8
 73
     4
 74
     0
 42
0.0000000001
 43
0.0000000001
 40
0.0
 40
0.0
 40
0.0
 40
0.0
 40
1.0
 40
1.0
 40
1.0
 40
1.0
 10
93.25775305370019
 20
75.89973097385622
 30
0.0
 10
93.42453604313567
 20
75.89973097385622
 30
0.0
 10
93.55919786423545
 20
76.03439279495593
 30
0.0
 10
93.55919786423545
 20
76.20117578439137
 30
0.0
  0
LINE
  5
79B
330
A
100
AcDbEntity
  8
0
370
    13
100
AcDbLine
 10
93.2577530537002
 20
75.8997309738562
 30
0.0
 11
90.8486654285214
 21
75.8997309738562
 31
0.0
  0
SPLINE
  5
79A
330
A
100
AcDbEntity
  8
0
370
    13
100
AcDbSpline
210
0.0
220
0.0
230
1.0
 70
     8
 71
     3
 72
     8
 73
     4
 74
     0
 42
0.0000000001
 43
0.0000000001
 40
0.0
 40
0.0
 40
0.0
 40
0.0
 40
1.0
 40
1.0
 40
1.0
 40
1.0
 10
90.54722061798623
 20
76.19994035484002
 30
0.0
 10
90.54722061798623
 20
76.03439279495593
 30
0.0
 10
90.68311786863734
 20
75.89849554430482
 30
0.0
 10
90.84866542852138
 20
75.89849554430482
 30
0.0
  0
LINE
  5
799
330
A
100
AcDbEntity
  8
0
370
    13
100
AcDbLine
 10
90.54722061798624
 20
76.19994035483999
 30
0.0
 11
90.54722061798624
 21
77.90606856528715
 31
0.0
  0
LINE
  5
798
330
A
100
AcDbEntity
  8
0
370
    13
100
AcDbLine
 10
90.54722061798624
 20
77.90606856528715
 30
0.0
 11
89.2920241937905
 21
77.90606856528715
 31
0.0
  0
SPLINE
  5
797
330
A
100
AcDbEntity
  8
0
370
    13
100
AcDbSpline
210
0.0
220
0.0
230
1.0
 70
     8
 71
     3
 72
     8
 73
     4
 74
     0
 42
0.0000000001
 43
0.0000000001
 40
0.0
 40
0.0
 40
0.0
 40
0.0
 40
1.0
 40
1.0
 40
1.0
 40
1.0
 10
89.2920241937905
 20
77.90606856528718
 30
0.0
 10
89.12524120435501
 20
77.90606856528718
 30
0.0
 10
88.9905793832553
 20
77.77387760329016
 30
0.0
 10
88.9905793832553
 20
77.60585918430333
 30
0.0
  0
LINE
  5
796
330
A
100
AcDbEntity
  8
0
370
    13
100
AcDbLine
 10
88.99057938325531
 20
77.60585918430333
 30
0.0
 11
88.99057938325531
 21
73.38810269591339
 31
0.0
  0
SPLINE
  5
795
330
A
100
AcDbEntity
  8
0
370
    13
100
AcDbSpline
210
0.0
220
0.0
230
1.0
 70
     8
 71
     3
 72
     8
 73
     4
 74
     0
 42
0.0000000001
 43
0.0000000001
 40
0.0
 40
0.0
 40
0.0
 40
0.0
 40
1.0
 40
1.0
 40
1.0
 40
1.0
 10
88.9905793832553
 20
73.38810269591336
 30
0.0
 10
88.9905793832553
 20
73.22131970647792
 30
0.0
 10
89.12647663390641
 20
73.08789331492956
 30
0.0
 10
89.2920241937905
 20
73.08789331492956
 30
0.0
  0
LINE
  5
794
330
A
100
AcDbEntity
  8
0
370
    13
100
AcDbLine
 10
89.2920241937905
 20
73.08789331492954
 30
0.0
 11
89.69477422753834
 21
73.08789331492954
 31
0.0
  0
SPLINE
  5
793
330
A
100
AcDbEntity
  8
0
370
    13
100
AcDbSpline
210
0.0
220
0.0
230
1.0
 70
     8
 71
     3
 72
     8
 73
     4
 74
     0
 42
0.0000000001
 43
0.0000000001
 40
0.0
 40
0.0
 40
0.0
 40
0.0
 40
1.0
 40
1.0
 40
1.0
 40
1.0
 10
89.69477422753834
 20
73.08789331492956
 30
0.0
 10
89.85908635787103
 20
73.08789331492956
 30
0.0
 10
89.99498360852214
 20
73.22131970647792
 30
0.0
 10
89.99498360852214
 20
73.38810269591336
 30
0.0
  0
LINE
  5
792
330
A
100
AcDbEntity
  8
0
370
    13
100
AcDbLine
 10
89.99498360852218
 20
73.38810269591339
 30
0.0
 11
89.99498360852218
 21
74.09106211064503
 31
0.0
  0
LINE
  5
791
330
A
100
AcDbEntity
  8
0
370
    13
100
AcDbLine
 10
89.99498360852218
 20
74.0922975401964
 30
0.0
 11
91.41572759260197
 21
74.0922975401964
 31
0.0
  0
SPLINE
  5
790
330
A
100
AcDbEntity
  8
0
370
    13
100
AcDbSpline
210
0.0
220
0.0
230
1.0
 70
     8
 71
     3
 72
     8
 73
     4
 74
     0
 42
0.0000000001
 43
0.0000000001
 40
0.0
 40
0.0
 40
0.0
 40
0.0
 40
1.0
 40
1.0
 40
1.0
 40
1.0
 10
93.41465260672464
 20
72.27621609967703
 30
0.0
 10
93.3158182426148
 20
73.30532891597131
 30
0.0
 10
92.44978212710174
 20
74.09106211064501
 30
0.0
 10
91.41572759260197
 20
74.09106211064501
 30
0.0
  0
LINE
  5
78F
330
A
100
AcDbEntity
  8
0
370
    13
100
AcDbLine
 10
93.41465260672467
 20
72.27621609967702
 30
0.0
 11
93.6184984827013
 21
70.17722129189305
 31
0.0
  0
SPLINE
  5
78E
330
A
100
AcDbEntity
  8
0
370
    13
100
AcDbSpline
210
0.0
220
0.0
230
1.0
 70
     8
 71
     3
 72
    11
 73
     7
 74
     0
 42
0.0000000001
 43
0.0000000001
 40
0.0
 40
0.0
 40
0.0
 40
0.0
 40
1.0
 40
1.0
 40
1.0
 40
2.0
 40
2.0
 40
2.0
 40
2.0
 10
91.14269766174833
 20
68.03375102025957
 30
0.0
 10
92.22122766009766
 20
67.77060452581697
 30
0.0
 10
93.30593480620377
 20
68.43032390625054
 30
0.0
 10
93.56908130064637
 20
69.50885390459986
 30
0.0
 10
93.62344020090683
 20
69.72628950564161
 30
0.0
 10
93.63950078507469
 20
69.952373113543
 30
0.0
 10
93.61849848270129
 20
70.17845672144445
 30
0.0
  0
LINE
  5
78D
330
A
100
AcDbEntity
  8
0
370
    13
100
AcDbLine
 10
91.14269766174837
 20
68.03375102025957
 30
0.0
 11
86.60002320134713
 21
69.14316675739319
 31
0.0
  0
SPLINE
  5
78C
330
A
100
AcDbEntity
  8
0
370
    13
100
AcDbSpline
210
0.0
220
0.0
230
1.0
 70
     8
 71
     3
 72
    11
 73
     7
 74
     0
 42
0.0000000001
 43
0.0000000001
 40
0.0
 40
0.0
 40
0.0
 40
0.0
 40
1.0
 40
1.0
 40
1.0
 40
2.0
 40
2.0
 40
2.0
 40
2.0
 10
86.60002320134713
 20
69.14193132784181
 30
0.0
 10
86.33069955914766
 20
69.20740909406466
 30
0.0
 10
86.05890505784538
 20
69.04309696373191
 30
0.0
 10
85.99342729162264
 20
68.77377332153248
 30
0.0
 10
85.98354385521162
 20
68.73423957588854
 30
0.0
 10
85.97860213700613
 20
68.69470583024453
 30
0.0
 10
85.97860213700613
 20
68.65517208460058
 30
0.0
  0
LINE
  5
78B
330
A
100
AcDbEntity
  8
0
370
    13
100
AcDbLine
 10
85.97860213700613
 20
68.65517208460058
 30
0.0
 11
85.97860213700613
 21
66.66118878868338
 31
0.0
  0
SPLINE
  5
78A
330
A
100
AcDbEntity
  8
0
370
    13
100
AcDbSpline
210
0.0
220
0.0
230
1.0
 70
     8
 71
     3
 72
     8
 73
     4
 74
     0
 42
0.0000000001
 43
0.0000000001
 40
0.0
 40
0.0
 40
0.0
 40
0.0
 40
1.0
 40
1.0
 40
1.0
 40
1.0
 10
85.97860213700613
 20
66.66118878868338
 30
0.0
 10
85.97860213700613
 20
66.49687665835064
 30
0.0
 10
86.11449938765719
 20
66.35974397814819
 30
0.0
 10
86.28004694754128
 20
66.35974397814819
 30
0.0
  0
LINE
  5
789
330
A
100
AcDbEntity
  8
0
370
    13
100
AcDbLine
 10
86.2800469475413
 20
66.35974397814816
 30
0.0
 11
91.22300058258769
 21
66.35974397814816
 31
0.0
  0
SPLINE
  5
788
330
A
100
AcDbEntity
  8
0
370
    13
100
AcDbSpline
210
0.0
220
0.0
230
1.0
 70
     8
 71
     3
 72
     8
 73
     4
 74
     0
 42
0.0000000001
 43
0.0000000001
 40
0.0
 40
0.0
 40
0.0
 40
0.0
 40
1.0
 40
1.0
 40
1.0
 40
1.0
 10
93.23057360356996
 20
64.35217095716582
 30
0.0
 10
93.23057360356996
 20
65.46158669429947
 30
0.0
 10
92.33118089016988
 20
66.35974397814819
 30
0.0
 10
91.2217651530363
 20
66.35974397814819
 30
0.0
  0
LINE
  5
787
330
A
100
AcDbEntity
  8
0
370
    13
100
AcDbLine
 10
93.23057360356996
 20
64.35217095716582
 30
0.0
 11
93.23057360356996
 21
59.17552863876234
 31
0.0
  0
SPLINE
  5
786
330
A
100
AcDbEntity
  8
0
370
    13
100
AcDbSpline
210
0.0
220
0.0
230
1.0
 70
     8
 71
     3
 72
     8
 73
     4
 74
     0
 42
0.0000000001
 43
0.0000000001
 40
0.0
 40
0.0
 40
0.0
 40
0.0
 40
1.0
 40
1.0
 40
1.0
 40
1.0
 10
91.75052900102423
 20
57.23837510220833
 30
0.0
 10
92.62397769384547
 20
57.47681300562349
 30
0.0
 10
93.23057360356996
 20
58.27119420715676
 30
0.0
 10
93.23057360356996
 20
59.17552863876231
 30
0.0
  0
LINE
  5
785
330
A
100
AcDbEntity
  8
0
370
    13
100
AcDbLine
 10
91.75052900102425
 20
57.23837510220832
 30
0.0
 11
80.6724322138559
 21
54.21774984909951
 31
0.0
  0
SPLINE
  5
784
330
A
100
AcDbEntity
  8
0
370
    13
100
AcDbSpline
210
0.0
220
0.0
230
1.0
 70
     8
 71
     3
 72
     8
 73
     4
 74
     0
 42
0.0000000001
 43
0.0000000001
 40
0.0
 40
0.0
 40
0.0
 40
0.0
 40
1.0
 40
1.0
 40
1.0
 40
1.0
 10
80.67243221385586
 20
54.21774984909948
 30
0.0
 10
79.88793444873357
 20
54.00402053671187
 30
0.0
 10
79.30975341869066
 20
53.33812400852142
 30
0.0
 10
79.20844819547807
 20
52.53138851147438
 30
0.0
  0
SPLINE
  5
783
330
A
100
AcDbEntity
  8
0
370
    13
100
AcDbSpline
210
0.0
220
0.0
230
1.0
 70
     8
 71
     3
 72
    11
 73
     7
 74
     0
 42
0.0000000001
 43
0.0000000001
 40
0.0
 40
0.0
 40
0.0
 40
0.0
 40
1.0
 40
1.0
 40
1.0
 40
2.0
 40
2.0
 40
2.0
 40
2.0
 10
78.2262817021359
 20
44.74447604916568
 30
0.0
 10
77.6246275106169
 20
44.4022620634352
 30
0.0
 10
77.41460448688338
 20
43.6350603120321
 30
0.0
 10
77.75805390216527
 20
43.0334061205131
 30
0.0
 10
77.81611909107983
 20
42.92963003819765
 30
0.0
 10
77.89024486416224
 20
42.83573739229323
 30
0.0
 10
77.97672493275843
 20
42.75296361235124
 30
0.0
  0
LINE
  5
782
330
A
100
AcDbEntity
  8
0
370
    13
100
AcDbLine
 10
77.97672493275843
 20
42.75296361235124
 30
0.0
 11
77.59868349003807
 21
39.76445952757813
 31
0.0
  0
SPLINE
  5
781
330
A
100
AcDbEntity
  8
0
370
    13
100
AcDbSpline
210
0.0
220
0.0
230
1.0
 70
     8
 71
     3
 72
    11
 73
     7
 74
     0
 42
0.0000000001
 43
0.0000000001
 40
0.0
 40
0.0
 40
0.0
 40
0.0
 40
1.0
 40
1.0
 40
1.0
 40
2.0
 40
2.0
 40
2.0
 40
2.0
 10
77.59868349003807
 20
39.76445952757812
 30
0.0
 10
76.99702929851901
 20
39.42101011229627
 30
0.0
 10
76.78700627478548
 20
38.65504379044453
 30
0.0
 10
77.13045569006737
 20
38.05215416937413
 30
0.0
 10
77.18975630853333
 20
37.94837808705873
 30
0.0
 10
77.2626466520644
 20
37.85572087070571
 30
0.0
 10
77.34912672066053
 20
37.77171166121227
 30
0.0
  0
LINE
  5
780
330
A
100
AcDbEntity
  8
0
370
    13
100
AcDbLine
 10
77.34912672066056
 20
37.77171166121228
 30
0.0
 11
76.9710852779402
 21
34.78320757643923
 31
0.0
  0
SPLINE
  5
77F
330
A
100
AcDbEntity
  8
0
370
    13
100
AcDbSpline
210
0.0
220
0.0
230
1.0
 70
     8
 71
     3
 72
    11
 73
     7
 74
     0
 42
0.0000000001
 43
0.0000000001
 40
0.0
 40
0.0
 40
0.0
 40
0.0
 40
1.0
 40
1.0
 40
1.0
 40
2.0
 40
2.0
 40
2.0
 40
2.0
 10
76.97108527794018
 20
34.78197214688786
 30
0.0
 10
76.37066651597257
 20
34.43975816115731
 30
0.0
 10
76.16064349223899
 20
33.67255640975421
 30
0.0
 10
76.50285747796954
 20
33.07090221823527
 30
0.0
 10
76.56339352598684
 20
32.96712613591987
 30
0.0
 10
76.63504843996651
 20
32.8732334900154
 30
0.0
 10
76.7215285085627
 20
32.79045971007341
 30
0.0
  0
LINE
  5
77E
330
A
100
AcDbEntity
  8
0
370
    13
100
AcDbLine
 10
76.72152850856268
 20
32.7904597100734
 30
0.0
 11
76.34472249539371
 21
29.80195562530033
 31
0.0
  0
SPLINE
  5
77D
330
A
100
AcDbEntity
  8
0
370
    13
100
AcDbSpline
210
0.0
220
0.0
230
1.0
 70
     8
 71
     3
 72
    11
 73
     7
 74
     0
 42
0.0000000001
 43
0.0000000001
 40
0.0
 40
0.0
 40
0.0
 40
0.0
 40
1.0
 40
1.0
 40
1.0
 40
2.0
 40
2.0
 40
2.0
 40
2.0
 10
76.34472249539368
 20
29.80195562530034
 30
0.0
 10
75.74183287432333
 20
29.45850621001844
 30
0.0
 10
75.53180985058981
 20
28.69253988816664
 30
0.0
 10
75.8764946954231
 20
28.08965026709629
 30
0.0
 10
75.93455988433766
 20
27.9871096143323
 30
0.0
 10
76.00745022786867
 20
27.89321696842788
 30
0.0
 10
76.09393029646486
 20
27.80920775893443
 30
0.0
  0
SPLINE
  5
77C
330
A
100
AcDbEntity
  8
0
370
    13
100
AcDbSpline
210
0.0
220
0.0
230
1.0
 70
     8
 71
     3
 72
    11
 73
     7
 74
     0
 42
0.0000000001
 43
0.0000000001
 40
0.0
 40
0.0
 40
0.0
 40
0.0
 40
1.0
 40
1.0
 40
1.0
 40
2.0
 40
2.0
 40
2.0
 40
2.0
 10
75.71835971284719
 20
24.81946824461002
 30
0.0
 10
75.11547009177684
 20
24.47725425887947
 30
0.0
 10
74.90544706804332
 20
23.71005250747638
 30
0.0
 10
75.24766105377381
 20
23.10839831595737
 30
0.0
 10
75.30819710179116
 20
23.00585766319338
 30
0.0
 10
75.38108744532223
 20
22.91072958773762
 30
0.0
 10
75.46756751391836
 20
22.83042666689832
 30
0.0
  0
SPLINE
  5
77B
330
A
100
AcDbEntity
  8
0
370
    13
100
AcDbSpline
210
0.0
220
0.0
230
1.0
 70
     8
 71
     3
 72
    11
 73
     7
 74
     0
 42
0.0000000001
 43
0.0000000001
 40
0.0
 40
0.0
 40
0.0
 40
0.0
 40
1.0
 40
1.0
 40
1.0
 40
2.0
 40
2.0
 40
2.0
 40
2.0
 10
75.08952607119801
 20
19.84068715257385
 30
0.0
 10
74.48787187967901
 20
19.49600230774055
 30
0.0
 10
74.27784885594542
 20
18.73127141544026
 30
0.0
 10
74.62253370077871
 20
18.12714636481851
 30
0.0
 10
74.68059888969327
 20
18.02460571205441
 30
0.0
 10
74.75225380367295
 20
17.93071306615005
 30
0.0
 10
74.83873387226907
 20
17.847939286208
 30
0.0
  0
LINE
  5
77A
330
A
100
AcDbEntity
  8
0
370
    13
100
AcDbLine
 10
74.8387338722691
 20
17.84793928620802
 30
0.0
 11
74.46316328865151
 21
14.85819977188354
 31
0.0
  0
SPLINE
  5
779
330
A
100
AcDbEntity
  8
0
370
    13
100
AcDbSpline
210
0.0
220
0.0
230
1.0
 70
     8
 71
     3
 72
    11
 73
     7
 74
     0
 42
0.0000000001
 43
0.0000000001
 40
0.0
 40
0.0
 40
0.0
 40
0.0
 40
1.0
 40
1.0
 40
1.0
 40
2.0
 40
2.0
 40
2.0
 40
2.0
 10
74.46316328865151
 20
14.85819977188354
 30
0.0
 10
73.86027366758111
 20
14.5147503566017
 30
0.0
 10
73.65025064384759
 20
13.74878403474989
 30
0.0
 10
73.99370005912948
 20
13.14712984323089
 30
0.0
 10
74.05300067759537
 20
13.04335376091555
 30
0.0
 10
74.12589102112645
 20
12.94822568545979
 30
0.0
 10
74.21237108972263
 20
12.86668733506909
 30
0.0
  0
LINE
  5
778
330
A
100
AcDbEntity
  8
0
370
    13
100
AcDbLine
 10
74.2111356601713
 20
12.86668733506908
 30
0.0
 11
73.83432964700225
 21
9.878183250296009
 31
0.0
  0
SPLINE
  5
777
330
A
100
AcDbEntity
  8
0
370
    13
100
AcDbSpline
210
0.0
220
0.0
230
1.0
 70
     8
 71
     3
 72
    11
 73
     7
 74
     0
 42
0.0000000001
 43
0.0000000001
 40
0.0
 40
0.0
 40
0.0
 40
0.0
 40
1.0
 40
1.0
 40
1.0
 40
2.0
 40
2.0
 40
2.0
 40
2.0
 10
73.83556507655362
 20
9.878183250296023
 30
0.0
 10
73.23267545548327
 20
9.533498405462728
 30
0.0
 10
73.02388786130109
 20
8.768767513162378
 30
0.0
 10
73.36733727658298
 20
8.165877892092032
 30
0.0
 10
73.42540246549759
 20
8.06210180977664
 30
0.0
 10
73.49952823857996
 20
7.969444593423565
 30
0.0
 10
73.5847728776248
 20
7.885435383930177
 30
0.0
  0
LINE
  5
776
330
A
100
AcDbEntity
  8
0
370
    13
100
AcDbLine
 10
73.58353744807342
 20
7.885435383930177
 30
0.0
 11
73.20673143490444
 21
4.896931299157108
 31
0.0
  0
SPLINE
  5
775
330
A
100
AcDbEntity
  8
0
370
    13
100
AcDbSpline
210
0.0
220
0.0
230
1.0
 70
     8
 71
     3
 72
    11
 73
     7
 74
     0
 42
0.0000000001
 43
0.0000000001
 40
0.0
 40
0.0
 40
0.0
 40
0.0
 40
1.0
 40
1.0
 40
1.0
 40
2.0
 40
2.0
 40
2.0
 40
2.0
 10
73.20796686445579
 20
4.895695869605765
 30
0.0
 10
72.60631267293672
 20
4.553481883875212
 30
0.0
 10
72.3962896492032
 20
3.786280132472119
 30
0.0
 10
72.73973906448515
 20
3.184625940953059
 30
0.0
 10
72.7978042533997
 20
3.080849858637667
 30
0.0
 10
72.87193002648212
 20
2.986957212733306
 30
0.0
 10
72.95717466552691
 20
2.904183432791204
 30
0.0
  0
LINE
  5
774
330
A
100
AcDbEntity
  8
0
370
    13
100
AcDbLine
 10
72.95717466552691
 20
2.904183432791233
 30
0.0
 11
72.57913322280656
 21
-0.084320651981836
 31
0.0
  0
SPLINE
  5
773
330
A
100
AcDbEntity
  8
0
370
    13
100
AcDbSpline
210
0.0
220
0.0
230
1.0
 70
     8
 71
     3
 72
    11
 73
     7
 74
     0
 42
0.0000000001
 43
0.0000000001
 40
0.0
 40
0.0
 40
0.0
 40
0.0
 40
1.0
 40
1.0
 40
1.0
 40
2.0
 40
2.0
 40
2.0
 40
2.0
 10
72.58036865235794
 20
-0.0843206519818076
 30
0.0
 10
71.97871446083894
 20
-0.4277700672637601
 30
0.0
 10
71.76869143710542
 20
-1.193736389115452
 30
0.0
 10
72.11214085238726
 20
-1.796626010185799
 30
0.0
 10
72.17020604130181
 20
-1.90040209250119
 30
0.0
 10
72.24433181438428
 20
-1.993059308854208
 30
0.0
 10
72.32957645342901
 20
-2.077068518347653
 30
0.0
  0
LINE
  5
772
330
A
100
AcDbEntity
  8
0
370
    13
100
AcDbLine
 10
72.32834102387767
 20
-2.077068518347682
 30
0.0
 11
70.57403106092698
 21
-16.28430685784343
 31
0.0
  0
SPLINE
  5
771
330
A
100
AcDbEntity
  8
0
370
    13
100
AcDbSpline
210
0.0
220
0.0
230
1.0
 70
     8
 71
     3
 72
     8
 73
     4
 74
     0
 42
0.0000000001
 43
0.0000000001
 40
0.0
 40
0.0
 40
0.0
 40
0.0
 40
1.0
 40
1.0
 40
1.0
 40
1.0
 10
69.57703941296836
 20
-17.16393269842152
 30
0.0
 10
70.0835655290316
 20
-17.16393269842152
 30
0.0
 10
70.51102415380689
 20
-16.78712668525256
 30
0.0
 10
70.57403106092698
 20
-16.28430685784346
 30
0.0
  0
LINE
  5
770
330
A
100
AcDbEntity
  8
0
370
    13
100
AcDbLine
 10
69.57703941296838
 20
-17.16393269842152
 30
0.0
 11
57.36728915674172
 21
-17.16269726887014
 31
0.0
  0
SPLINE
  5
76F
330
A
100
AcDbEntity
  8
0
370
    13
100
AcDbSpline
210
0.0
220
0.0
230
1.0
 70
     8
 71
     3
 72
     8
 73
     4
 74
     0
 42
0.0000000001
 43
0.0000000001
 40
0.0
 40
0.0
 40
0.0
 40
0.0
 40
1.0
 40
1.0
 40
1.0
 40
1.0
 10
57.36852458629306
 20
-17.16269726887017
 30
0.0
 10
57.28822166545376
 20
-17.16269726887017
 30
0.0
 10
57.2116250332686
 20
-17.19605386675729
 30
0.0
 10
57.15479527390539
 20
-17.2516481965691
 30
0.0
  0
LINE
  5
76E
330
A
100
AcDbEntity
  8
0
370
    13
100
AcDbLine
 10
57.15479527390539
 20
-17.25288362612047
 30
0.0
 11
56.7421618037466
 21
-17.66551709627927
 31
0.0
  0
LINE
  5
76D
330
A
100
AcDbEntity
  8
0
370
    13
100
AcDbLine
 10
56.74092637419523
 20
-17.6642816667279
 30
0.0
 11
56.327057474485
 21
-17.2516481965691
 31
0.0
  0
SPLINE
  5
76C
330
A
100
AcDbEntity
  8
0
370
    13
100
AcDbSpline
210
0.0
220
0.0
230
1.0
 70
     8
 71
     3
 72
     8
 73
     4
 74
     0
 42
0.0000000001
 43
0.0000000001
 40
0.0
 40
0.0
 40
0.0
 40
0.0
 40
1.0
 40
1.0
 40
1.0
 40
1.0
 10
56.327057474485
 20
-17.25288362612045
 30
0.0
 10
56.27022771512179
 20
-17.19728929630863
 30
0.0
 10
56.19363108293663
 20
-17.16393269842152
 30
0.0
 10
56.11456359164873
 20
-17.16393269842152
 30
0.0
  0
LINE
  5
76B
330
A
100
AcDbEntity
  8
0
370
    13
100
AcDbLine
 10
56.11456359164872
 20
-17.16269726887014
 30
0.0
 11
40.40237055727752
 21
-17.16269726887014
 31
0.0
  0
SPLINE
  5
76A
330
A
100
AcDbEntity
  8
0
370
    13
100
AcDbSpline
210
0.0
220
0.0
230
1.0
 70
     8
 71
     3
 72
    11
 73
     7
 74
     0
 42
0.0000000001
 43
0.0000000001
 40
0.0
 40
0.0
 40
0.0
 40
0.0
 40
1.0
 40
1.0
 40
1.0
 40
2.0
 40
2.0
 40
2.0
 40
2.0
 10
39.42391035258947
 20
-15.93468029480467
 30
0.0
 10
39.30036739745213
 20
-16.47456300875504
 30
0.0
 10
39.6376396649772
 20
-17.01321029315394
 30
0.0
 10
40.1775223789275
 20
-17.13798867784268
 30
0.0
 10
40.25164815200986
 20
-17.15528469156194
 30
0.0
 10
40.32700935464368
 20
-17.16269726887017
 30
0.0
 10
40.40237055727749
 20
-17.16269726887017
 30
0.0
  0
SPLINE
  5
769
330
A
100
AcDbEntity
  8
0
370
    13
100
AcDbSpline
210
0.0
220
0.0
230
1.0
 70
     8
 71
     3
 72
     8
 73
     4
 74
     0
 42
0.0000000001
 43
0.0000000001
 40
0.0
 40
0.0
 40
0.0
 40
0.0
 40
1.0
 40
1.0
 40
1.0
 40
1.0
 10
39.42391035258947
 20
-15.93468029480467
 30
0.0
 10
45.70112790311947
 20
11.68067496575034
 30
0.0
 10
45.52816776592715
 20
40.10914437241141
 30
0.0
 10
38.91491337742354
 20
67.28755157122988
 30
0.0
  0
SPLINE
  5
768
330
A
100
AcDbEntity
  8
0
370
    13
100
AcDbSpline
210
0.0
220
0.0
230
1.0
 70
     8
 71
     3
 72
     8
 73
     4
 74
     0
 42
0.0000000001
 43
0.0000000001
 40
0.0
 40
0.0
 40
0.0
 40
0.0
 40
1.0
 40
1.0
 40
1.0
 40
1.0
 10
38.91491337742354
 20
67.28631614167849
 30
0.0
 10
38.80619557690261
 20
67.73477706882717
 30
0.0
 10
38.40344554315482
 20
68.05228246353023
 30
0.0
 10
37.94015946138961
 20
68.05228246353023
 30
0.0
  0
LINE
  5
767
330
A
100
AcDbEntity
  8
0
370
    13
100
AcDbLine
 10
37.94015946138964
 20
68.05228246353021
 30
0.0
 11
24.49374422423787
 21
68.05228246353021
 31
0.0
  0
LINE
  5
766
330
A
100
AcDbEntity
  8
0
370
    13
100
AcDbLine
 10
24.49374422423787
 20
68.05228246353021
 30
0.0
 11
24.49374422423787
 21
68.75647730781323
 31
0.0
  0
SPLINE
  5
765
330
A
100
AcDbEntity
  8
0
370
    13
100
AcDbSpline
210
0.0
220
0.0
230
1.0
 70
     8
 71
     3
 72
     8
 73
     4
 74
     0
 42
0.0000000001
 43
0.0000000001
 40
0.0
 40
0.0
 40
0.0
 40
0.0
 40
1.0
 40
1.0
 40
1.0
 40
1.0
 10
24.49374422423784
 20
68.75771273736457
 30
0.0
 10
24.49374422423784
 20
68.92202486769732
 30
0.0
 10
24.35846468836246
 20
69.05792211834842
 30
0.0
 10
24.19229941370264
 20
69.05792211834842
 30
0.0
  0
LINE
  5
764
330
A
100
AcDbEntity
  8
0
370
    13
100
AcDbLine
 10
24.19229941370265
 20
69.05668668879705
 30
0.0
 11
23.79016709473052
 21
69.05668668879705
 31
0.0
  0
SPLINE
  5
763
330
A
100
AcDbEntity
  8
0
370
    13
100
AcDbSpline
210
0.0
220
0.0
230
1.0
 70
     8
 71
     3
 72
     8
 73
     4
 74
     0
 42
0.0000000001
 43
0.0000000001
 40
0.0
 40
0.0
 40
0.0
 40
0.0
 40
1.0
 40
1.0
 40
1.0
 40
1.0
 10
23.79016709473052
 20
69.05668668879709
 30
0.0
 10
23.62461953484643
 20
69.05668668879709
 30
0.0
 10
23.48933999897099
 20
68.92326029724866
 30
0.0
 10
23.48933999897099
 20
68.75647730781323
 30
0.0
  0
LINE
  5
762
330
A
100
AcDbEntity
  8
0
370
    13
100
AcDbLine
 10
23.48933999897102
 20
68.7577127373646
 30
0.0
 11
23.48933999897102
 21
68.05351789308158
 31
0.0
  0
LINE
  5
761
330
A
100
AcDbEntity
  8
0
370
    13
100
AcDbLine
 10
23.48933999897102
 20
68.05228246353021
 30
0.0
 11
21.87216271622279
 21
68.05228246353021
 31
0.0
  0
SPLINE
  5
760
330
A
100
AcDbEntity
  8
0
370
    13
100
AcDbSpline
210
0.0
220
0.0
230
1.0
 70
     8
 71
     3
 72
    11
 73
     7
 74
     0
 42
0.0000000001
 43
0.0000000001
 40
0.0
 40
0.0
 40
0.0
 40
0.0
 40
1.0
 40
1.0
 40
1.0
 40
2.0
 40
2.0
 40
2.0
 40
2.0
 10
19.87323770210008
 20
70.25505335362955
 30
0.0
 10
19.76699076068195
 20
69.15057933470144
 30
0.0
 10
20.57557940205606
 20
68.16964827091074
 30
0.0
 10
21.67881799143276
 20
68.06216589994121
 30
0.0
 10
21.7442957576556
 20
68.05598875218432
 30
0.0
 10
21.80792037955132
 20
68.05228246353023
 30
0.0
 10
21.87216271622276
 20
68.05228246353023
 30
0.0
  0
LINE
  5
75F
330
A
100
AcDbEntity
  8
0
370
    13
100
AcDbLine
 10
19.87323770210007
 20
70.25505335362956
 30
0.0
 11
20.06843557121715
 21
72.27621609967702
 31
0.0
  0
SPLINE
  5
75E
330
A
100
AcDbEntity
  8
0
370
    13
100
AcDbSpline
210
0.0
220
0.0
230
1.0
 70
     8
 71
     3
 72
     8
 73
     4
 74
     0
 42
0.0000000001
 43
0.0000000001
 40
0.0
 40
0.0
 40
0.0
 40
0.0
 40
1.0
 40
1.0
 40
1.0
 40
1.0
 10
22.06859601489122
 20
74.09229754019641
 30
0.0
 10
21.03330605083999
 20
74.09229754019641
 30
0.0
 10
20.1697407944298
 20
73.30656434552271
 30
0.0
 10
20.06967100076849
 20
72.27745152922837
 30
0.0
  0
LINE
  5
75D
330
A
100
AcDbEntity
  8
0
370
    13
100
AcDbLine
 10
22.06859601489124
 20
74.0922975401964
 30
0.0
 11
23.48933999897102
 21
74.0922975401964
 31
0.0
  0
LINE
  5
75C
330
A
100
AcDbEntity
  8
0
370
    13
100
AcDbLine
 10
23.48933999897102
 20
74.0922975401964
 30
0.0
 11
23.48933999897102
 21
73.38933812546476
 31
0.0
  0
SPLINE
  5
75B
330
A
100
AcDbEntity
  8
0
370
    13
100
AcDbSpline
210
0.0
220
0.0
230
1.0
 70
     8
 71
     3
 72
     8
 73
     4
 74
     0
 42
0.0000000001
 43
0.0000000001
 40
0.0
 40
0.0
 40
0.0
 40
0.0
 40
1.0
 40
1.0
 40
1.0
 40
1.0
 10
23.48933999897099
 20
73.38810269591336
 30
0.0
 10
23.48933999897099
 20
73.22255513602932
 30
0.0
 10
23.62461953484643
 20
73.08789331492956
 30
0.0
 10
23.79016709473052
 20
73.08789331492956
 30
0.0
  0
LINE
  5
75A
330
A
100
AcDbEntity
  8
0
370
    13
100
AcDbLine
 10
23.79016709473052
 20
73.08789331492954
 30
0.0
 11
24.19229941370265
 21
73.08789331492954
 31
0.0
  0
SPLINE
  5
759
330
A
100
AcDbEntity
  8
0
370
    13
100
AcDbSpline
210
0.0
220
0.0
230
1.0
 70
     8
 71
     3
 72
     8
 73
     4
 74
     0
 42
0.0000000001
 43
0.0000000001
 40
0.0
 40
0.0
 40
0.0
 40
0.0
 40
1.0
 40
1.0
 40
1.0
 40
1.0
 10
24.19229941370264
 20
73.08789331492956
 30
0.0
 10
24.3597001179138
 20
73.08789331492956
 30
0.0
 10
24.49374422423784
 20
73.22255513602932
 30
0.0
 10
24.49374422423784
 20
73.38810269591336
 30
0.0
  0
LINE
  5
758
330
A
100
AcDbEntity
  8
0
370
    13
100
AcDbLine
 10
24.49374422423787
 20
73.38810269591339
 30
0.0
 11
24.49374422423787
 21
77.60585918430333
 31
0.0
  0
SPLINE
  5
757
330
A
100
AcDbEntity
  8
0
370
    13
100
AcDbSpline
210
0.0
220
0.0
230
1.0
 70
     8
 71
     3
 72
     8
 73
     4
 74
     0
 42
0.0000000001
 43
0.0000000001
 40
0.0
 40
0.0
 40
0.0
 40
0.0
 40
1.0
 40
1.0
 40
1.0
 40
1.0
 10
24.49374422423784
 20
77.60585918430333
 30
0.0
 10
24.49374422423784
 20
77.77264217373875
 30
0.0
 10
24.35846468836246
 20
77.90730399483853
 30
0.0
 10
24.19229941370264
 20
77.90730399483853
 30
0.0
  0
LINE
  5
756
330
A
100
AcDbEntity
  8
0
370
    13
100
AcDbLine
 10
24.19229941370265
 20
77.90730399483853
 30
0.0
 11
22.93648527473123
 21
77.90730399483853
 31
0.0
  0
LINE
  5
755
330
A
100
AcDbEntity
  8
0
370
    13
100
AcDbLine
 10
22.93524984517986
 20
77.90730399483853
 30
0.0
 11
22.93524984517986
 21
76.20117578439137
 31
0.0
  0
SPLINE
  5
754
330
A
100
AcDbEntity
  8
0
370
    13
100
AcDbSpline
210
0.0
220
0.0
230
1.0
 70
     8
 71
     3
 72
     8
 73
     4
 74
     0
 42
0.0000000001
 43
0.0000000001
 40
0.0
 40
0.0
 40
0.0
 40
0.0
 40
1.0
 40
1.0
 40
1.0
 40
1.0
 10
22.63380503464469
 20
75.89973097385622
 30
0.0
 10
22.8012057388558
 20
75.89973097385622
 30
0.0
 10
22.93524984517984
 20
76.03439279495593
 30
0.0
 10
22.93524984517984
 20
76.20117578439137
 30
0.0
  0
LINE
  5
753
330
A
100
AcDbEntity
  8
0
370
    13
100
AcDbLine
 10
22.63380503464471
 20
75.8997309738562
 30
0.0
 11
20.22409969469023
 21
75.8997309738562
 31
0.0
  0
SPLINE
  5
752
330
A
100
AcDbEntity
  8
0
370
    13
100
AcDbSpline
210
0.0
220
0.0
230
1.0
 70
     8
 71
     3
 72
     8
 73
     4
 74
     0
 42
0.0000000001
 43
0.0000000001
 40
0.0
 40
0.0
 40
0.0
 40
0.0
 40
1.0
 40
1.0
 40
1.0
 40
1.0
 10
19.922654884155
 20
76.20117578439137
 30
0.0
 10
19.922654884155
 20
76.03439279495593
 30
0.0
 10
20.05793442003044
 20
75.89973097385622
 30
0.0
 10
20.22409969469021
 20
75.89973097385622
 30
0.0
  0
LINE
  5
751
330
A
100
AcDbEntity
  8
0
370
    13
100
AcDbLine
 10
19.92265488415502
 20
76.20117578439137
 30
0.0
 11
19.92265488415502
 21
77.90730399483853
 31
0.0
  0
LINE
  5
750
330
A
100
AcDbEntity
  8
0
370
    13
100
AcDbLine
 10
19.92265488415502
 20
77.90730399483853
 30
0.0
 11
18.75023223990133
 21
77.90730399483853
 31
0.0
  0
SPLINE
  5
74F
330
A
100
AcDbEntity
  8
0
370
    13
100
AcDbSpline
210
0.0
220
0.0
230
1.0
 70
     8
 71
     3
 72
     8
 73
     4
 74
     0
 42
0.0000000001
 43
0.0000000001
 40
0.0
 40
0.0
 40
0.0
 40
0.0
 40
1.0
 40
1.0
 40
1.0
 40
1.0
 10
18.75023223990132
 20
77.90730399483853
 30
0.0
 10
18.47411373516933
 20
77.90730399483853
 30
0.0
 10
18.24926555681929
 20
77.68245581648854
 30
0.0
 10
18.24926555681929
 20
77.40571959698083
 30
0.0
  0
SPLINE
  5
74E
330
A
100
AcDbEntity
  8
0
370
    13
100
AcDbSpline
210
0.0
220
0.0
230
1.0
 70
     8
 71
     3
 72
     8
 73
     4
 74
     0
 42
0.0000000001
 43
0.0000000001
 40
0.0
 40
0.0
 40
0.0
 40
0.0
 40
1.0
 40
1.0
 40
1.0
 40
1.0
 10
18.24926555681929
 20
-2.473641404338617
 30
0.0
 10
18.24926555681929
 20
-3.759723567318725
 30
0.0
 10
18.66004588265104
 20
-5.011213702860311
 30
0.0
 10
19.42168820107298
 20
-6.045268237360142
 30
0.0
  0
LINE
  5
74D
330
A
100
AcDbEntity
  8
0
370
    13
100
AcDbLine
 10
19.42168820107299
 20
-6.045268237360142
 30
0.0
 11
62.34483481922649
 21
-64.2748417666869
 31
0.0
  0
SPLINE
  5
74C
330
A
100
AcDbEntity
  8
0
370
    13
100
AcDbSpline
210
0.0
220
0.0
230
1.0
 70
     8
 71
     3
 72
     8
 73
     4
 74
     0
 42
0.0000000001
 43
0.0000000001
 40
0.0
 40
0.0
 40
0.0
 40
0.0
 40
1.0
 40
1.0
 40
1.0
 40
1.0
 10
62.34483481922649
 20
-64.2748417666869
 30
0.0
 10
62.72287626194685
 20
-64.78754503050703
 30
0.0
 10
63.32453045346586
 20
-65.09269612969632
 30
0.0
 10
63.96324753152606
 20
-65.09269612969632
 30
0.0
  0
LINE
  5
74B
330
A
100
AcDbEntity
  8
0
370
    13
100
AcDbLine
 10
63.96201210197472
 20
-65.09269612969632
 30
0.0
 11
91.09204505014204
 21
-65.09022527059355
 31
0.0
  0
SPLINE
  5
74A
330
A
100
AcDbEntity
  8
0
370
    13
100
AcDbSpline
210
0.0
220
0.0
230
1.0
 70
     8
 71
     3
 72
     8
 73
     4
 74
     0
 42
0.0000000001
 43
0.0000000001
 40
0.0
 40
0.0
 40
0.0
 40
0.0
 40
1.0
 40
1.0
 40
1.0
 40
1.0
 10
91.09204505014202
 20
-65.08898984104217
 30
0.0
 10
91.17358340053266
 20
-65.08898984104217
 30
0.0
 10
91.24647374406373
 20
-65.03957265898725
 30
0.0
 10
91.27735948284811
 20
-64.96421145635344
 30
0.0
  0
LINE
  5
749
330
A
100
AcDbEntity
  8
0
370
    13
100
AcDbLine
 10
91.2785949123995
 20
-64.96421145635344
 30
0.0
 11
91.52691625222558
 21
-64.36255726483444
 31
0.0
  0
SPLINE
  5
748
330
A
100
AcDbEntity
  8
0
370
    13
100
AcDbSpline
210
0.0
220
0.0
230
1.0
 70
     8
 71
     3
 72
    11
 73
     7
 74
     0
 42
0.0000000001
 43
0.0000000001
 40
0.0
 40
0.0
 40
0.0
 40
0.0
 40
1.0
 40
1.0
 40
1.0
 40
2.0
 40
2.0
 40
2.0
 40
2.0
 10
91.52815168177699
 20
-64.36255726483444
 30
0.0
 10
91.57015628652368
 20
-64.26001661207038
 30
0.0
 10
91.52073910446871
 20
-64.14265080468988
 30
0.0
 10
91.41819845170472
 20
-64.09941077039184
 30
0.0
 10
91.39472529022857
 20
-64.08952733398081
 30
0.0
 10
91.36878126964973
 20
-64.08458561577532
 30
0.0
 10
91.3416018195195
 20
-64.08458561577532
 30
0.0
  0
LINE
  5
747
330
A
100
AcDbEntity
  8
0
370
    13
100
AcDbLine
 10
91.34160181951953
 20
-64.08582104532669
 30
0.0
 11
90.53486632247247
 21
-64.08582104532669
 31
0.0
  0
SPLINE
  5
746
330
A
100
AcDbEntity
  8
0
370
    13
100
AcDbSpline
210
0.0
220
0.0
230
1.0
 70
     8
 71
     3
 72
     8
 73
     4
 74
     0
 42
0.0000000001
 43
0.0000000001
 40
0.0
 40
0.0
 40
0.0
 40
0.0
 40
1.0
 40
1.0
 40
1.0
 40
1.0
 10
89.531697526757
 20
-63.08141682005986
 30
0.0
 10
89.531697526757
 20
-63.63488925907528
 30
0.0
 10
89.98015845390568
 20
-64.08582104532673
 30
0.0
 10
90.53610175202384
 20
-64.08582104532673
 30
0.0
  0
LINE
  5
745
330
A
100
AcDbEntity
  8
0
370
    13
100
AcDbLine
 10
89.53169752675702
 20
-63.08141682005984
 30
0.0
 11
89.53169752675702
 21
-62.07577716524161
 31
0.0
  0
SPLINE
  5
744
330
A
100
AcDbEntity
  8
0
370
    13
100
AcDbSpline
210
0.0
220
0.0
230
1.0
 70
     8
 71
     3
 72
     8
 73
     4
 74
     0
 42
0.0000000001
 43
0.0000000001
 40
0.0
 40
0.0
 40
0.0
 40
0.0
 40
1.0
 40
1.0
 40
1.0
 40
1.0
 10
90.53486632247251
 20
-61.07137293997475
 30
0.0
 10
89.98015845390568
 20
-61.07137293997475
 30
0.0
 10
89.53046209720559
 20
-61.52106929667478
 30
0.0
 10
89.53046209720559
 20
-62.07824802434435
 30
0.0
  0
LINE
  5
743
330
A
100
AcDbEntity
  8
0
370
    13
100
AcDbLine
 10
90.53486632247247
 20
-61.07137293997475
 30
0.0
 11
94.74768109265694
 21
-61.07137293997475
 31
0.0
  0
SPLINE
  5
742
330
A
100
AcDbEntity
  8
0
370
    13
100
AcDbSpline
210
0.0
220
0.0
230
1.0
 70
     8
 71
     3
 72
     8
 73
     4
 74
     0
 42
0.0000000001
 43
0.0000000001
 40
0.0
 40
0.0
 40
0.0
 40
0.0
 40
1.0
 40
1.0
 40
1.0
 40
1.0
 10
94.74891652220827
 20
-61.07137293997475
 30
0.0
 10
95.02565274171599
 20
-61.07137293997475
 30
0.0
 10
95.25050092006603
 20
-60.84652476162471
 30
0.0
 10
95.25050092006603
 20
-60.569788542117
 30
0.0
  0
LINE
  5
741
330
A
100
AcDbEntity
  8
0
370
    13
100
AcDbLine
 10
95.24926549051468
 20
-60.56978854211703
 30
0.0
 11
95.24926549051468
 21
77.41436760384037
 31
0.0
  0
LINE
  5
704
330
A
100
AcDbEntity
  8
0
370
    13
100
AcDbLine
 10
289.6428699696211
 20
79.24196230652916
 30
0.0
 11
289.6428699696211
 21
-5.758037598865579
 31
0.0
  0
LINE
  5
703
330
A
100
AcDbEntity
  8
0
370
    13
100
AcDbLine
 10
289.6428699696211
 20
-5.758037598865598
 30
0.0
 11
334.6428744364414
 21
-65.75803736387701
 31
0.0
  0
LINE
  5
702
330
A
100
AcDbEntity
  8
0
370
    13
100
AcDbLine
 10
334.6428744364414
 20
-65.75803736387701
 30
0.0
 11
366.6441095204071
 21
-65.75803736387701
 31
0.0
  0
LINE
  5
701
330
A
100
AcDbEntity
  8
0
370
    13
100
AcDbLine
 10
366.6428740908556
 20
-65.75803736387701
 30
0.0
 11
366.6428740908556
 21
-64.94265385997031
 31
0.0
  0
LINE
  5
700
330
A
100
AcDbEntity
  8
0
370
    13
100
AcDbLine
 10
366.6428740908556
 20
-64.94265385997031
 30
0.0
 11
335.0542724770489
 21
-64.94265385997031
 31
0.0
  0
LINE
  5
6FF
330
A
100
AcDbEntity
  8
0
370
    13
100
AcDbLine
 10
335.0555079066002
 20
-64.94265385997031
 30
0.0
 11
290.4594889030793
 21
-5.491627751837668
 31
0.0
  0
LINE
  5
6FE
330
A
100
AcDbEntity
  8
0
370
    13
100
AcDbLine
 10
290.4594889030793
 20
-5.491627751837668
 30
0.0
 11
290.4594889030792
 21
78.42534337307114
 31
0.0
  0
LINE
  5
6FD
330
A
100
AcDbEntity
  8
0
370
    13
100
AcDbLine
 10
290.4594889030792
 20
78.42657880262251
 30
0.0
 11
300.644105431464
 21
78.42657880262251
 31
0.0
  0
LINE
  5
6FC
330
A
100
AcDbEntity
  8
0
370
    13
100
AcDbLine
 10
300.6428700019126
 20
78.42657880262251
 30
0.0
 11
300.6428700019126
 21
79.24196230652916
 31
0.0
  0
LINE
  5
6FB
330
A
100
AcDbEntity
  8
0
370
    13
100
AcDbLine
 10
300.6428700019126
 20
79.24196230652916
 30
0.0
 11
289.6428699696211
 21
79.24196230652916
 31
0.0
  0
LINE
  5
4D0
330
A
100
AcDbEntity
  8
0
370
    13
100
AcDbLine
 10
162.5900594767944
 20
-63.39093046471705
 30
0.0
 11
162.5900594767944
 21
79.97706697781783
 31
0.0
  0
LINE
  5
4CF
330
A
100
AcDbEntity
  8
0
370
    13
100
AcDbLine
 10
162.5900594767944
 20
79.97706697781783
 30
0.0
 11
172.7746759529361
 21
79.97706697781783
 31
0.0
  0
LINE
  5
4CE
330
A
100
AcDbEntity
  8
0
370
    13
100
AcDbLine
 10
172.7746759529361
 20
79.97706697781783
 30
0.0
 11
172.7746759529361
 21
80.79245048172447
 31
0.0
  0
LINE
  5
4CD
330
A
100
AcDbEntity
  8
0
370
    13
100
AcDbLine
 10
172.7746759529361
 20
80.79245048172447
 30
0.0
 11
161.7746759728878
 21
80.79245048172447
 31
0.0
  0
LINE
  5
4CC
330
A
100
AcDbEntity
  8
0
370
    13
100
AcDbLine
 10
161.7734405433364
 20
80.79245048172447
 30
0.0
 11
161.7734405433364
 21
-64.20754939817507
 31
0.0
  0
LINE
  5
4CB
330
A
100
AcDbEntity
  8
0
370
    13
100
AcDbLine
 10
161.7734405433364
 20
-64.20754939817507
 30
0.0
 11
237.7734406988688
 21
-64.20754939817507
 31
0.0
  0
LINE
  5
4CA
330
A
100
AcDbEntity
  8
0
370
    13
100
AcDbLine
 10
237.7746761284202
 20
-64.20754939817507
 30
0.0
 11
237.7746761284202
 21
-63.39093046471705
 31
0.0
  0
LINE
  5
4C9
330
A
100
AcDbEntity
  8
0
370
    13
100
AcDbLine
 10
237.7746761284202
 20
-63.39093046471705
 30
0.0
 11
162.5912949063458
 21
-63.39093046471705
 31
0.0
  0
MTEXT
  5
111E
330
A
100
AcDbEntity
  8
文字
370
    13
100
AcDbMText
 10
-8.482929457806221
 20
-93.42503425312726
 30
0.0
 40
5.0
 41
0.0
 71
     5
 72
     1
  1
{\fMS UI Gothic|b0|i0|c128|p17;S1780}
 73
     1
 44
1.0
  0
LINE
  5
1581
330
A
100
AcDbEntity
  8
0
370
    13
100
AcDbLine
 10
93.03166944579881
 20
38.31146201244671
 30
0.0
 11
95.24926549051468
 21
38.31146201244671
 31
0.0
  0
LINE
  5
1582
330
A
100
AcDbEntity
  8
0
370
    13
100
AcDbLine
 10
93.03166944579881
 20
27.31146201244672
 30
0.0
 11
95.24926549051468
 21
27.31146201244672
 31
0.0
  0
LINE
  5
1583
330
A
100
AcDbEntity
  8
0
370
    13
100
AcDbLine
 10
18.24926555681931
 20
45.31146201244673
 30
0.0
 11
21.26000737351712
 21
45.31146201244673
 31
0.0
  0
LINE
  5
1584
330
A
100
AcDbEntity
  8
0
370
    13
100
AcDbLine
 10
18.24926555681931
 20
20.31146201244671
 30
0.0
 11
21.26000737351712
 21
20.31146201244671
 31
0.0
  0
LINE
  5
1585
330
A
100
AcDbEntity
  8
0
370
    13
100
AcDbLine
 10
92.22740480785448
 20
-36.92997643929643
 30
0.0
 11
95.24926549051468
 21
-36.92997643929642
 31
0.0
  0
LINE
  5
1586
330
A
100
AcDbEntity
  8
0
370
    13
100
AcDbLine
 10
37.05852779438668
 20
-29.92997643929642
 30
0.0
 11
42.0381298716313
 21
-29.92997643929642
 31
0.0
  0
LINE
  5
1587
330
A
100
AcDbEntity
  8
0
370
    13
100
AcDbLine
 10
55.46470495056382
 20
-54.92997643929642
 30
0.0
 11
60.44082623739917
 21
-54.92997643929642
 31
0.0
  0
LINE
  5
1588
330
A
100
AcDbEntity
  8
0
370
    13
100
AcDbLine
 10
92.22740480785448
 20
-47.92997643929642
 30
0.0
 11
95.24926549051468
 21
-47.92997643929641
 31
0.0
  0
LINE
  5
1589
330
A
100
AcDbEntity
  8
0
370
    13
100
AcDbLine
 10
25.27972481438457
 20
45.31146201244673
 30
0.0
 11
31.83753048477017
 21
45.31146201244673
 31
0.0
  0
LINE
  5
158A
330
A
100
AcDbEntity
  8
0
370
    13
100
AcDbLine
 10
40.93934085695766
 20
20.31146201244671
 30
0.0
 11
43.95300934907152
 21
20.31146201244671
 31
0.0
  0
LINE
  5
158B
330
A
100
AcDbEntity
  8
0
370
    13
100
AcDbLine
 10
75.14888379433205
 20
20.31146201244671
 30
0.0
 11
77.58749934638719
 21
20.31146201244671
 31
0.0
  0
LINE
  5
158C
330
A
100
AcDbEntity
  8
0
370
    13
100
AcDbLine
 10
78.29770592153066
 20
45.31146201244673
 30
0.0
 11
81.15888382896178
 21
45.31146201244673
 31
0.0
  0
LINE
  5
158D
330
A
100
AcDbEntity
  8
0
370
    13
100
AcDbLine
 10
39.80622785035091
 20
45.31146201244673
 30
0.0
 11
42.82889441455988
 21
45.31146201244673
 31
0.0
  0
DIMENSION
  5
158E
330
A
100
AcDbEntity
  8
寸法
370
    13
100
AcDbDimension
  2
*D0
 10
300.6428700019126
 20
84.24196230652915
 30
0.0
 11
295.1428699857669
 21
86.24196230652916
 31
0.0
 70
    32
 71
     5
 42
11.00000003229149
  3
ISO-25 1／10
100
AcDbAlignedDimension
 13
289.6428699696211
 23
79.24196230652916
 33
0.0
 14
300.6428700019126
 24
79.24196230652916
 34
0.0
100
AcDbRotatedDimension
1001
ACAD
1000
DSTYLE
1002
{
1070
   279
1070
     1
1002
}
  0
DIMENSION
  5
15C6
330
A
100
AcDbEntity
  8
寸法
370
    13
100
AcDbDimension
  2
*D1
 10
334.6428744364414
 20
-70.75803736387701
 30
0.0
 11
350.6428742636485
 21
-68.75803736387701
 31
0.0
 70
    32
 71
     5
 42
31.99999965441418
  3
ISO-25 1／10
100
AcDbAlignedDimension
 13
366.6428740908556
 23
-65.75803736387701
 33
0.0
 14
334.6428744364414
 24
-65.75803736387701
 34
0.0
 50
180.0
100
AcDbRotatedDimension
1001
ACAD
1000
DSTYLE
1002
{
1070
   279
1070
     1
1002
}
  0
DIMENSION
  5
15E5
330
A
100
AcDbEntity
  8
寸法
370
    13
100
AcDbDimension
  2
*D2
 10
284.6428699696211
 20
79.24196230652917
 30
0.0
 11
282.6428699696212
 21
36.74196235383184
 31
0.0
 70
    32
 71
     5
 42
84.99999990539475
  3
ISO-25 1／10
100
AcDbAlignedDimension
 13
289.6428699696211
 23
-5.758037598865579
 33
0.0
 14
289.6428699696211
 24
79.24196230652916
 34
0.0
 50
90.0
100
AcDbRotatedDimension
1001
ACAD
1000
DSTYLE
1002
{
1070
   279
1070
     1
1002
}
  0
DIMENSION
  5
1682
330
A
100
AcDbEntity
  8
寸法
370
    13
100
AcDbDimension
  2
*D3
 10
172.7746759529361
 20
85.79245048172447
 30
0.0
 11
167.274675962912
 21
87.79245048172446
 31
0.0
 70
    32
 71
     5
 42
10.99999998004827
  3
ISO-25 1／10
100
AcDbAlignedDimension
 13
161.7746759728878
 23
80.79245048172447
 33
0.0
 14
172.7746759529361
 24
80.79245048172447
 34
0.0
100
AcDbRotatedDimension
1001
ACAD
1000
DSTYLE
1002
{
1070
   279
1070
     1
1002
}
  0
DIMENSION
  5
1683
330
A
100
AcDbEntity
  8
寸法
370
    13
100
AcDbDimension
  2
*D4
 10
156.7746759728878
 20
80.79245048172449
 30
0.0
 11
154.7746759728878
 21
8.292450541774732
 31
0.0
 70
    32
 71
     5
 42
144.9999998798995
  3
ISO-25 1／10
100
AcDbAlignedDimension
 13
162.4957996412058
 23
-64.20754939817507
 33
0.0
 14
161.7746759728878
 24
80.79245048172447
 34
0.0
 50
90.0
100
AcDbRotatedDimension
1001
ACAD
1000
DSTYLE
1002
{
1070
   279
1070
     1
1002
}
  0
DIMENSION
  5
16C5
330
A
100
AcDbEntity
  8
寸法
370
    13
100
AcDbDimension
  2
*D5
 10
161.7734405433364
 20
-69.20754939817507
 30
0.0
 11
199.7734406211026
 21
-67.20754939817507
 31
0.0
 70
    32
 71
     5
 42
76.00000015553246
  3
ISO-25 1／10
100
AcDbAlignedDimension
 13
237.7734406988688
 23
-64.20754939817507
 33
0.0
 14
161.7734405433364
 24
-64.20754939817507
 34
0.0
 50
180.0
100
AcDbRotatedDimension
1001
ACAD
1000
DSTYLE
1002
{
1070
   279
1070
     1
1002
}
  0
DIMENSION
  5
1730
330
A
100
AcDbEntity
  8
寸法
370
    13
100
AcDbDimension
  2
*D6
 10
330.6428745850193
 20
-68.75803756198099
 30
0.0
 11
309.742872292178
 21
-37.55803760023372
 31
0.0
 70
    33
 71
     5
 42
75.00000249210137
  3
ISO-25 1／10
100
AcDbAlignedDimension
 13
289.6428699696211
 23
-5.758037598865579
 33
0.0
 14
334.6428744364414
 24
-65.75803736387701
 34
0.0
  0
DIMENSION
  5
1A33
330
A
100
AcDbEntity
  8
寸法
370
    13
100
AcDbDimension
  2
*D7
 10
95.24926549051468
 20
82.90606856528716
 30
0.0
 11
56.74926552366699
 21
84.90606856528716
 31
0.0
 70
    32
 71
     5
 42
76.99999993369536
  3
ISO-25 1／10
100
AcDbAlignedDimension
 13
18.24926555681931
 23
77.40182319437845
 33
0.0
 14
95.24926549051468
 24
77.41436760384037
 34
0.0
100
AcDbRotatedDimension
1001
ACAD
1000
DSTYLE
1002
{
1070
   279
1070
     1
1002
}
  0
DIMENSION
  5
1A62
330
A
100
AcDbEntity
  8
寸法
370
    13
100
AcDbDimension
  2
*D8
 10
13.25050098637072
 20
-29.92997643929641
 30
0.0
 11
11.25050098637073
 21
-42.42997643929641
 31
0.0
 70
    32
 71
     5
 42
25.0
  3
ISO-25 1／10
100
AcDbAlignedDimension
 13
55.46470495056382
 23
-54.92997643929642
 33
0.0
 14
37.05852779438668
 24
-29.92997643929642
 34
0.0
 50
90.0
100
AcDbRotatedDimension
1001
ACAD
1000
DSTYLE
1002
{
1070
   279
1070
     1
1002
}
  0
DIMENSION
  5
1A78
330
A
100
AcDbEntity
  8
寸法
370
    13
100
AcDbDimension
  2
*D9
 10
8.250500986370731
 20
-17.09269641604875
 30
0.0
 11
6.250500986370732
 21
-41.09269627287253
 31
0.0
 70
    32
 71
     5
 42
47.99999971364755
  3
ISO-25 1／10
100
AcDbAlignedDimension
 13
63.96324753152606
 23
-65.09269612969632
 33
0.0
 14
40.84755780464522
 24
-17.09269641604876
 34
0.0
 50
90.0
100
AcDbRotatedDimension
1001
ACAD
1000
DSTYLE
1002
{
1070
   279
1070
     1
1002
}
  0
DIMENSION
  5
1A8E
330
A
100
AcDbEntity
  8
寸法
370
    13
100
AcDbDimension
  2
*D10
 10
3.250500986370752
 20
77.90730399483853
 30
0.0
 11
1.250500986370735
 21
6.40730393257111
 31
0.0
 70
    32
 71
     5
 42
143.0000001245348
  3
ISO-25 1／10
100
AcDbAlignedDimension
 13
63.96324753152606
 23
-65.09269612969632
 33
0.0
 14
19.33644356202817
 24
77.90730399483853
 34
0.0
 50
90.0
100
AcDbRotatedDimension
1001
ACAD
1000
DSTYLE
1002
{
1070
   279
1070
     1
1002
}
  0
SPLINE
  5
1BB6
102
{ACAD_REACTORS
330
1BCA
102
}
330
A
100
AcDbEntity
  8
0
 62
   253
370
    13
100
AcDbSpline
210
0.0
220
0.0
230
1.0
 70
     8
 71
     3
 72
     8
 73
     4
 74
     0
 42
0.0000000001
 43
0.0000000001
 40
1.0
 40
1.0
 40
1.0
 40
1.0
 40
2.0
 40
2.0
 40
2.0
 40
2.0
 10
41.06764034816075
 20
-9.429977905936652
 30
0.0
 10
41.10019116498341
 20
-9.436237678402505
 30
0.0
 10
41.1314900273129
 20
-9.439576223717779
 30
0.0
 10
41.16487548046444
 20
-9.439576223717779
 30
0.0
  0
SPLINE
  5
1BB7
102
{ACAD_REACTORS
330
1BCA
102
}
330
A
100
AcDbEntity
  8
0
 62
   253
370
    13
100
AcDbSpline
210
0.0
220
0.0
230
1.0
 70
     8
 71
     3
 72
     8
 73
     4
 74
     0
 42
0.0000000001
 43
0.0000000001
 40
0.0
 40
0.0
 40
0.0
 40
0.0
 40
1.0
 40
1.0
 40
1.0
 40
1.0
 10
40.67077077382243
 20
-8.84114197597745
 30
0.0
 10
40.61902332143768
 20
-9.114068055490747
 30
0.0
 10
40.79596622314051
 20
-9.376978499058736
 30
0.0
 10
41.06764034816075
 20
-9.429977905936652
 30
0.0
  0
SPLINE
  5
1BBE
102
{ACAD_REACTORS
330
1BCA
102
}
330
A
100
AcDbEntity
  8
0
 62
   253
370
    13
100
AcDbSpline
210
0.0
220
0.0
230
1.0
 70
     8
 71
     3
 72
     8
 73
     4
 74
     0
 42
0.0000000001
 43
0.0000000001
 40
0.0
 40
0.0
 40
0.0
 40
0.0
 40
1.0
 40
1.0
 40
1.0
 40
1.0
 10
40.67077077382243
 20
-8.84114197597745
 30
0.0
 10
45.11520922461326
 20
13.97739793489495
 30
0.0
 10
45.11520922461326
 20
37.43902513709747
 30
0.0
 10
40.67077077382243
 20
60.25673041164111
 30
0.0
  0
SPLINE
  5
1BBF
102
{ACAD_REACTORS
330
1BCA
102
}
330
A
100
AcDbEntity
  8
0
 62
   253
370
    13
100
AcDbSpline
210
0.0
220
0.0
230
1.0
 70
     8
 71
     3
 72
    11
 73
     7
 74
     0
 42
0.0000000001
 43
0.0000000001
 40
0.0
 40
0.0
 40
0.0
 40
0.0
 40
1.0
 40
1.0
 40
1.0
 40
2.0
 40
2.0
 40
2.0
 40
2.0
 10
41.16487548046444
 20
60.85516465938133
 30
0.0
 10
40.8873589011427
 20
60.85516465938133
 30
0.0
 10
40.66242441053458
 20
60.63106480510203
 30
0.0
 10
40.66242441053458
 20
60.3535482257804
 30
0.0
 10
40.66242441053458
 20
60.32099740895779
 30
0.0
 10
40.66576295584974
 20
60.28928122846372
 30
0.0
 10
40.67202272831565
 20
60.25673041164111
 30
0.0
  0
SPLINE
  5
1BC0
102
{ACAD_REACTORS
330
1BCA
102
}
330
A
100
AcDbEntity
  8
0
 62
   253
370
    13
100
AcDbSpline
210
0.0
220
0.0
230
1.0
 70
     8
 71
     3
 72
     8
 73
     4
 74
     0
 42
0.0000000001
 43
0.0000000001
 40
0.0
 40
0.0
 40
0.0
 40
0.0
 40
1.0
 40
1.0
 40
1.0
 40
1.0
 10
48.50550199214606
 20
60.3535482257804
 30
0.0
 10
48.50550199214606
 20
60.63106480510203
 30
0.0
 10
48.28015018337357
 20
60.85599929571021
 30
0.0
 10
48.00388555854505
 20
60.85599929571021
 30
0.0
  0
SPLINE
  5
1BC1
102
{ACAD_REACTORS
330
1BCA
102
}
330
A
100
AcDbEntity
  8
0
 62
   253
370
    13
100
AcDbSpline
210
0.0
220
0.0
230
1.0
 70
     8
 71
     3
 72
     8
 73
     4
 74
     0
 42
0.0000000001
 43
0.0000000001
 40
0.0
 40
0.0
 40
0.0
 40
0.0
 40
1.0
 40
1.0
 40
1.0
 40
1.0
 10
48.00305092221631
 20
-9.439576223717779
 30
0.0
 10
48.28015018337357
 20
-9.439576223717779
 30
0.0
 10
48.5046673558173
 20
-9.214641733109658
 30
0.0
 10
48.5046673558173
 20
-8.93712515378786
 30
0.0
  0
LINE
  5
1BC5
102
{ACAD_REACTORS
330
1BCA
102
}
330
A
100
AcDbEntity
  8
0
 62
   253
370
    13
100
AcDbLine
 10
48.50550199214609
 20
60.3535482257804
 30
0.0
 11
48.50550199214609
 21
-8.937125153787917
 31
0.0
  0
LINE
  5
1BC6
102
{ACAD_REACTORS
330
1BCA
102
}
330
A
100
AcDbEntity
  8
0
 62
   253
370
    13
100
AcDbLine
 10
48.00305092221631
 20
-9.439576223717836
 30
0.0
 11
41.16404084413562
 21
-9.439576223717836
 31
0.0
  0
LINE
  5
1BC9
102
{ACAD_REACTORS
330
1BCA
102
}
330
A
100
AcDbEntity
  8
0
 62
   253
370
    13
100
AcDbLine
 10
41.16487548046444
 20
60.85516465938133
 30
0.0
 11
48.00388555854508
 21
60.85516465938133
 31
0.0
  0
LINE
  5
1C07
102
{ACAD_REACTORS
330
1C31
102
}
330
A
100
AcDbEntity
  8
0
 62
     1
370
    13
100
AcDbLine
 10
118.0261062658188
 20
37.91985366278753
 30
0.0
 11
85.94018187826
 21
37.91985366278753
 31
0.0
  0
LINE
  5
1C08
102
{ACAD_REACTORS
330
1C31
102
}
330
A
100
AcDbEntity
  8
0
 62
     1
370
    13
100
AcDbLine
 10
118.9195844557853
 20
37.02679279098537
 30
0.0
 11
85.04795564278667
 21
37.02679279098537
 31
0.0
  0
LINE
  5
1C09
102
{ACAD_REACTORS
330
1C31
102
}
330
A
100
AcDbEntity
  8
0
 62
     1
370
    13
100
AcDbLine
 10
93.03000017314117
 20
42.76992536936881
 30
0.0
 11
93.03166944579881
 21
22.85299865552462
 31
0.0
  0
SPLINE
  5
1C0A
102
{ACAD_REACTORS
330
1C31
102
}
330
A
100
AcDbEntity
  8
0
 62
     1
370
    13
100
AcDbSpline
210
0.0
220
0.0
230
1.0
 70
     8
 71
     3
 72
     8
 73
     4
 74
     0
 42
0.0000000001
 43
0.0000000001
 40
0.0
 40
0.0
 40
0.0
 40
0.0
 40
1.0
 40
1.0
 40
1.0
 40
1.0
 10
90.99724339438047
 20
30.00791858405118
 30
0.0
 10
91.41456155877397
 20
30.36973343258028
 30
0.0
 10
91.41456155877397
 20
30.73196559927384
 30
0.0
 10
90.99724339438047
 20
31.09378044780293
 30
0.0
  0
SPLINE
  5
1C0B
102
{ACAD_REACTORS
330
1C31
102
}
330
A
100
AcDbEntity
  8
0
 62
     1
370
    13
100
AcDbSpline
210
0.0
220
0.0
230
1.0
 70
     8
 71
     3
 72
     8
 73
     4
 74
     0
 42
0.0000000001
 43
0.0000000001
 40
0.0
 40
0.0
 40
0.0
 40
0.0
 40
1.0
 40
1.0
 40
1.0
 40
1.0
 10
90.99724339438047
 20
30.98778163404704
 30
0.0
 10
91.41456155877397
 20
31.96597541138549
 30
0.0
 10
91.41456155877397
 20
32.94458650688818
 30
0.0
 10
90.99724339438047
 20
33.92236296606221
 30
0.0
  0
SPLINE
  5
1C0C
102
{ACAD_REACTORS
330
1C31
102
}
330
A
100
AcDbEntity
  8
0
 62
     1
370
    13
100
AcDbSpline
210
0.0
220
0.0
230
1.0
 70
     8
 71
     3
 72
     8
 73
     4
 74
     0
 42
0.0000000001
 43
0.0000000001
 40
0.0
 40
0.0
 40
0.0
 40
0.0
 40
1.0
 40
1.0
 40
1.0
 40
1.0
 10
90.99724339438047
 20
31.96263686607027
 30
0.0
 10
91.41456155877397
 20
31.31162052961633
 30
0.0
 10
91.41456155877397
 20
30.65935223866926
 30
0.0
 10
90.99724339438047
 20
30.00875322037984
 30
0.0
  0
SPLINE
  5
1C0D
102
{ACAD_REACTORS
330
1C31
102
}
330
A
100
AcDbEntity
  8
0
 62
     1
370
    13
100
AcDbSpline
210
0.0
220
0.0
230
1.0
 70
     8
 71
     3
 72
     8
 73
     4
 74
     0
 42
0.0000000001
 43
0.0000000001
 40
0.0
 40
0.0
 40
0.0
 40
0.0
 40
1.0
 40
1.0
 40
1.0
 40
1.0
 10
90.99724339438047
 20
33.81719878863492
 30
0.0
 10
91.41456155877397
 20
34.46863244325322
 30
0.0
 10
91.41456155877397
 20
35.12006609787152
 30
0.0
 10
90.99724339438047
 20
35.77108243432535
 30
0.0
  0
SPLINE
  5
1C0E
102
{ACAD_REACTORS
330
1C31
102
}
330
A
100
AcDbEntity
  8
0
 62
     1
370
    13
100
AcDbSpline
210
0.0
220
0.0
230
1.0
 70
     8
 71
     3
 72
     8
 73
     4
 74
     0
 42
0.0000000001
 43
0.0000000001
 40
0.0
 40
0.0
 40
0.0
 40
0.0
 40
1.0
 40
1.0
 40
1.0
 40
1.0
 10
90.99724339438047
 20
34.79080206616497
 30
0.0
 10
91.41456155877397
 20
33.81302560699099
 30
0.0
 10
91.41456155877397
 20
32.83441451148831
 30
0.0
 10
90.99724339438047
 20
31.85663805231433
 30
0.0
  0
SPLINE
  5
1C0F
102
{ACAD_REACTORS
330
1C31
102
}
330
A
100
AcDbEntity
  8
0
 62
     1
370
    13
100
AcDbSpline
210
0.0
220
0.0
230
1.0
 70
     8
 71
     3
 72
     8
 73
     4
 74
     0
 42
0.0000000001
 43
0.0000000001
 40
0.0
 40
0.0
 40
0.0
 40
0.0
 40
1.0
 40
1.0
 40
1.0
 40
1.0
 10
90.99724339438047
 20
35.77191707065423
 30
0.0
 10
91.41456155877397
 20
35.41051954028926
 30
0.0
 10
91.41456155877397
 20
35.0482873735957
 30
0.0
 10
90.99724339438047
 20
34.6856378887379
 30
0.0
  0
SPLINE
  5
1C10
102
{ACAD_REACTORS
330
1C31
102
}
330
A
100
AcDbEntity
  8
0
 62
     1
370
    13
100
AcDbSpline
210
0.0
220
0.0
230
1.0
 70
     8
 71
     3
 72
     8
 73
     4
 74
     0
 42
0.0000000001
 43
0.0000000001
 40
0.0
 40
0.0
 40
0.0
 40
0.0
 40
1.0
 40
1.0
 40
1.0
 40
1.0
 10
86.30700454476182
 20
25.48878018183392
 30
0.0
 10
85.36595208405454
 20
24.84068507253072
 30
0.0
 10
85.36595208405454
 20
24.19217264506323
 30
0.0
 10
86.30700454476182
 20
23.54240826310256
 30
0.0
  0
SPLINE
  5
1C11
102
{ACAD_REACTORS
330
1C31
102
}
330
A
100
AcDbEntity
  8
0
 62
     1
370
    13
100
AcDbSpline
210
0.0
220
0.0
230
1.0
 70
     8
 71
     3
 72
     8
 73
     4
 74
     0
 42
0.0000000001
 43
0.0000000001
 40
0.0
 40
0.0
 40
0.0
 40
0.0
 40
1.0
 40
1.0
 40
1.0
 40
1.0
 10
86.30700454476182
 20
34.75741661301361
 30
0.0
 10
85.36595208405454
 20
31.66801024200832
 30
0.0
 10
85.36595208405454
 20
28.57818655283909
 30
0.0
 10
86.30700454476182
 20
25.48878018183392
 30
0.0
  0
SPLINE
  5
1C12
102
{ACAD_REACTORS
330
1C31
102
}
330
A
100
AcDbEntity
  8
0
 62
     1
370
    13
100
AcDbSpline
210
0.0
220
0.0
230
1.0
 70
     8
 71
     3
 72
     8
 73
     4
 74
     0
 42
0.0000000001
 43
0.0000000001
 40
0.0
 40
0.0
 40
0.0
 40
0.0
 40
1.0
 40
1.0
 40
1.0
 40
1.0
 10
86.30700454476182
 20
42.07926380729764
 30
0.0
 10
85.36595208405454
 20
39.63836986375985
 30
0.0
 10
85.36595208405454
 20
37.19831055655117
 30
0.0
 10
86.30700454476182
 20
34.75741661301361
 30
0.0
  0
SPLINE
  5
1C13
102
{ACAD_REACTORS
330
1C31
102
}
330
A
100
AcDbEntity
  8
0
 62
     1
370
    13
100
AcDbSpline
210
0.0
220
0.0
230
1.0
 70
     8
 71
     3
 72
     8
 73
     4
 74
     0
 42
0.0000000001
 43
0.0000000001
 40
0.0
 40
0.0
 40
0.0
 40
0.0
 40
1.0
 40
1.0
 40
1.0
 40
1.0
 10
85.65139770849977
 20
41.44869606089906
 30
0.0
 10
85.76532556737909
 20
41.64608755265708
 30
0.0
 10
85.98316564919255
 20
41.85558127118258
 30
0.0
 10
86.3078391810907
 20
42.0800984436264
 30
0.0
  0
LINE
  5
1C14
102
{ACAD_REACTORS
330
1C31
102
}
330
A
100
AcDbEntity
  8
0
 62
     1
370
    13
100
AcDbLine
 10
118.9425369548269
 20
28.78517636237813
 30
0.0
 11
117.921359406556
 21
27.86039931008224
 31
0.0
  0
LINE
  5
1C15
102
{ACAD_REACTORS
330
1C31
102
}
330
A
100
AcDbEntity
  8
0
 62
     1
370
    13
100
AcDbLine
 10
117.9735241771052
 20
27.86039931008224
 30
0.0
 11
117.9735241771052
 21
37.91901902645872
 31
0.0
  0
LINE
  5
1C16
102
{ACAD_REACTORS
330
1C31
102
}
330
A
100
AcDbEntity
  8
0
 62
     1
370
    13
100
AcDbLine
 10
85.02500314374508
 20
28.78517636237813
 30
0.0
 11
86.04701532834473
 21
27.86039931008224
 31
0.0
  0
LINE
  5
1C17
102
{ACAD_REACTORS
330
1C31
102
}
330
A
100
AcDbEntity
  8
0
 62
     1
370
    13
100
AcDbLine
 10
85.99318128513798
 20
37.91985366278753
 30
0.0
 11
85.99318128513798
 21
27.86039931008224
 31
0.0
  0
LINE
  5
1C18
102
{ACAD_REACTORS
330
1C31
102
}
330
A
100
AcDbEntity
  8
0
 62
     1
370
    13
100
AcDbLine
 10
85.06256177854048
 20
40.42918778528576
 30
0.0
 11
85.06256177854048
 21
25.19290160327886
 31
0.0
  0
LINE
  5
1C19
102
{ACAD_REACTORS
330
1C31
102
}
330
A
100
AcDbEntity
  8
0
 62
     1
370
    13
100
AcDbLine
 10
91.0393925289842
 20
42.76992536936881
 30
0.0
 11
91.0393925289842
 21
22.85299865552462
 31
0.0
  0
LINE
  5
1C1A
102
{ACAD_REACTORS
330
1C31
102
}
330
A
100
AcDbEntity
  8
0
 62
     1
370
    13
100
AcDbLine
 10
118.0261062658188
 20
27.86039931008224
 30
0.0
 11
85.94018187826
 21
27.86039931008224
 31
0.0
  0
LINE
  5
1C1B
102
{ACAD_REACTORS
330
1C31
102
}
330
A
100
AcDbEntity
  8
0
 62
     1
370
    13
100
AcDbLine
 10
91.02729030221679
 20
27.7039049984346
 30
0.0
 11
93.09384985229341
 21
27.7039049984346
 31
0.0
  0
LINE
  5
1C1C
102
{ACAD_REACTORS
330
1C31
102
}
330
A
100
AcDbEntity
  8
0
 62
     1
370
    13
100
AcDbLine
 10
91.0393925289842
 20
25.48878018183392
 30
0.0
 11
86.30700454476182
 21
25.48878018183392
 31
0.0
  0
LINE
  5
1C1D
102
{ACAD_REACTORS
330
1C31
102
}
330
A
100
AcDbEntity
  8
0
 62
     1
370
    13
100
AcDbLine
 10
91.0393925289842
 20
23.54324289943132
 30
0.0
 11
86.30700454476182
 21
23.54324289943132
 31
0.0
  0
LINE
  5
1C1E
102
{ACAD_REACTORS
330
1C31
102
}
330
A
100
AcDbEntity
  8
0
 62
     1
370
    13
100
AcDbLine
 10
85.06256177854048
 20
25.19290160327886
 30
0.0
 11
85.65139770849972
 21
24.17339332766555
 31
0.0
  0
LINE
  5
1C1F
102
{ACAD_REACTORS
330
1C31
102
}
330
A
100
AcDbEntity
  8
0
 62
     1
370
    13
100
AcDbLine
 10
91.0393925289842
 20
22.85299865552462
 30
0.0
 11
93.03166944579881
 21
22.85299865552462
 31
0.0
  0
LINE
  5
1C20
102
{ACAD_REACTORS
330
1C31
102
}
330
A
100
AcDbEntity
  8
0
 62
     1
370
    13
100
AcDbLine
 10
85.04795564278667
 20
28.75346018188428
 30
0.0
 11
118.9195844557853
 21
28.75346018188428
 31
0.0
  0
LINE
  5
1C21
102
{ACAD_REACTORS
330
1C31
102
}
330
A
100
AcDbEntity
  8
0
 62
     1
370
    13
100
AcDbLine
 10
91.02729030221679
 20
38.16857528876607
 30
0.0
 11
93.09384985229341
 21
38.16857528876607
 31
0.0
  0
LINE
  5
1C22
102
{ACAD_REACTORS
330
1C31
102
}
330
A
100
AcDbEntity
  8
0
 62
     1
370
    13
100
AcDbLine
 10
91.10324220813643
 20
35.71891766377609
 30
0.0
 11
85.02500314374508
 21
35.71891766377609
 31
0.0
  0
LINE
  5
1C23
102
{ACAD_REACTORS
330
1C31
102
}
330
A
100
AcDbEntity
  8
0
 62
     1
370
    13
100
AcDbLine
 10
85.02500314374508
 20
36.99340733783383
 30
0.0
 11
86.04701532834473
 21
37.91901902645872
 31
0.0
  0
LINE
  5
1C24
102
{ACAD_REACTORS
330
1C31
102
}
330
A
100
AcDbEntity
  8
0
 62
     1
370
    13
100
AcDbLine
 10
85.06256177854048
 20
40.42918778528576
 30
0.0
 11
85.65139770849972
 21
41.448696060899
 31
0.0
  0
LINE
  5
1C25
102
{ACAD_REACTORS
330
1C31
102
}
330
A
100
AcDbEntity
  8
0
 62
     1
370
    13
100
AcDbLine
 10
92.76166459343615
 20
32.88908319102381
 30
0.0
 11
91.12828129800005
 21
30.18945198556229
 31
0.0
  0
LINE
  5
1C26
102
{ACAD_REACTORS
330
1C31
102
}
330
A
100
AcDbEntity
  8
0
 62
     1
370
    13
100
AcDbLine
 10
91.10324220813643
 20
34.73780265928712
 30
0.0
 11
85.02500314374508
 21
34.73780265928712
 31
0.0
  0
LINE
  5
1C27
102
{ACAD_REACTORS
330
1C31
102
}
330
A
100
AcDbEntity
  8
0
 62
     1
370
    13
100
AcDbLine
 10
85.02500314374508
 20
31.90963745919236
 30
0.0
 11
91.10324220813643
 21
31.90963745919236
 31
0.0
  0
LINE
  5
1C28
102
{ACAD_REACTORS
330
1C31
102
}
330
A
100
AcDbEntity
  8
0
 62
     1
370
    13
100
AcDbLine
 10
91.10324220813643
 20
33.870198195513
 30
0.0
 11
85.02500314374508
 21
33.870198195513
 31
0.0
  0
LINE
  5
1C29
102
{ACAD_REACTORS
330
1C31
102
}
330
A
100
AcDbEntity
  8
0
 62
     1
370
    13
100
AcDbLine
 10
91.10324220813643
 20
31.09378044780293
 30
0.0
 11
85.02500314374508
 21
31.09378044780293
 31
0.0
  0
LINE
  5
1C2A
102
{ACAD_REACTORS
330
1C31
102
}
330
A
100
AcDbEntity
  8
0
 62
     1
370
    13
100
AcDbLine
 10
91.10324220813643
 20
30.00791858405118
 30
0.0
 11
85.02500314374508
 21
30.00791858405118
 31
0.0
  0
LINE
  5
1C2B
102
{ACAD_REACTORS
330
1C31
102
}
330
A
100
AcDbEntity
  8
0
 62
     1
370
    13
100
AcDbLine
 10
91.0393925289842
 20
34.75741661301355
 30
0.0
 11
86.30700454476182
 21
34.75741661301355
 31
0.0
  0
LINE
  5
1C2C
102
{ACAD_REACTORS
330
1C31
102
}
330
A
100
AcDbEntity
  8
0
 62
     1
370
    13
100
AcDbLine
 10
92.76166459343615
 20
32.88908319102381
 30
0.0
 11
91.12828129800005
 21
35.58913171464979
 31
0.0
  0
LINE
  5
1C2D
102
{ACAD_REACTORS
330
1C31
102
}
330
A
100
AcDbEntity
  8
0
 62
     1
370
    13
100
AcDbLine
 10
91.0393925289842
 20
42.07926380729758
 30
0.0
 11
86.30700454476182
 21
42.07926380729758
 31
0.0
  0
LINE
  5
1C2E
102
{ACAD_REACTORS
330
1C31
102
}
330
A
100
AcDbEntity
  8
0
 62
     1
370
    13
100
AcDbLine
 10
91.0393925289842
 20
42.76992536936881
 30
0.0
 11
93.03166944579881
 21
42.76992536936881
 31
0.0
  0
LINE
  5
1C2F
102
{ACAD_REACTORS
330
1C31
102
}
330
A
100
AcDbEntity
  8
0
 62
     1
370
    13
100
AcDbLine
 10
118.9425369548269
 20
36.99340733783383
 30
0.0
 11
117.921359406556
 21
37.91901902645872
 31
0.0
  0
LINE
  5
1C30
102
{ACAD_REACTORS
330
1C31
102
}
330
A
100
AcDbEntity
  8
0
 62
     1
370
    13
100
AcDbLine
 10
118.8895375479489
 20
37.00342297377943
 30
0.0
 11
118.8895375479489
 21
28.77557804459712
 31
0.0
  0
LINE
  5
1C32
102
{ACAD_REACTORS
330
1C5C
102
}
330
A
100
AcDbEntity
  8
0
 62
     1
370
    13
100
AcDbLine
 10
90.23512789103987
 20
-33.16217464444556
 30
0.0
 11
85.5027399068175
 21
-33.16217464444556
 31
0.0
  0
LINE
  5
1C33
102
{ACAD_REACTORS
330
1C5C
102
}
330
A
100
AcDbEntity
  8
0
 62
     1
370
    13
100
AcDbLine
 10
92.22573553519685
 20
-32.47151308237433
 30
0.0
 11
92.22740480785448
 21
-52.38843979621853
 31
0.0
  0
SPLINE
  5
1C34
102
{ACAD_REACTORS
330
1C5C
102
}
330
A
100
AcDbEntity
  8
0
 62
     1
370
    13
100
AcDbSpline
210
0.0
220
0.0
230
1.0
 70
     8
 71
     3
 72
     8
 73
     4
 74
     0
 42
0.0000000001
 43
0.0000000001
 40
0.0
 40
0.0
 40
0.0
 40
0.0
 40
1.0
 40
1.0
 40
1.0
 40
1.0
 10
90.19297875643614
 20
-45.23351986769196
 30
0.0
 10
90.61029692082964
 20
-44.87170501916287
 30
0.0
 10
90.61029692082964
 20
-44.50947285246931
 30
0.0
 10
90.19297875643614
 20
-44.14765800394021
 30
0.0
  0
SPLINE
  5
1C35
102
{ACAD_REACTORS
330
1C5C
102
}
330
A
100
AcDbEntity
  8
0
 62
     1
370
    13
100
AcDbSpline
210
0.0
220
0.0
230
1.0
 70
     8
 71
     3
 72
     8
 73
     4
 74
     0
 42
0.0000000001
 43
0.0000000001
 40
0.0
 40
0.0
 40
0.0
 40
0.0
 40
1.0
 40
1.0
 40
1.0
 40
1.0
 10
90.19297875643614
 20
-44.2536568176961
 30
0.0
 10
90.61029692082964
 20
-43.27546304035766
 30
0.0
 10
90.61029692082964
 20
-42.29685194485496
 30
0.0
 10
90.19297875643614
 20
-41.31907548568093
 30
0.0
  0
SPLINE
  5
1C36
102
{ACAD_REACTORS
330
1C5C
102
}
330
A
100
AcDbEntity
  8
0
 62
     1
370
    13
100
AcDbSpline
210
0.0
220
0.0
230
1.0
 70
     8
 71
     3
 72
     8
 73
     4
 74
     0
 42
0.0000000001
 43
0.0000000001
 40
0.0
 40
0.0
 40
0.0
 40
0.0
 40
1.0
 40
1.0
 40
1.0
 40
1.0
 10
90.19297875643614
 20
-43.27880158567287
 30
0.0
 10
90.61029692082964
 20
-43.92981792212682
 30
0.0
 10
90.61029692082964
 20
-44.58208621307388
 30
0.0
 10
90.19297875643614
 20
-45.23268523136331
 30
0.0
  0
SPLINE
  5
1C37
102
{ACAD_REACTORS
330
1C5C
102
}
330
A
100
AcDbEntity
  8
0
 62
     1
370
    13
100
AcDbSpline
210
0.0
220
0.0
230
1.0
 70
     8
 71
     3
 72
     8
 73
     4
 74
     0
 42
0.0000000001
 43
0.0000000001
 40
0.0
 40
0.0
 40
0.0
 40
0.0
 40
1.0
 40
1.0
 40
1.0
 40
1.0
 10
90.19297875643614
 20
-41.42423966310823
 30
0.0
 10
90.61029692082964
 20
-40.77280600848992
 30
0.0
 10
90.61029692082964
 20
-40.12137235387163
 30
0.0
 10
90.19297875643614
 20
-39.47035601741779
 30
0.0
  0
SPLINE
  5
1C38
102
{ACAD_REACTORS
330
1C5C
102
}
330
A
100
AcDbEntity
  8
0
 62
     1
370
    13
100
AcDbSpline
210
0.0
220
0.0
230
1.0
 70
     8
 71
     3
 72
     8
 73
     4
 74
     0
 42
0.0000000001
 43
0.0000000001
 40
0.0
 40
0.0
 40
0.0
 40
0.0
 40
1.0
 40
1.0
 40
1.0
 40
1.0
 10
90.19297875643614
 20
-40.45063638557817
 30
0.0
 10
90.61029692082964
 20
-41.42841284475215
 30
0.0
 10
90.61029692082964
 20
-42.40702394025483
 30
0.0
 10
90.19297875643614
 20
-43.38480039942882
 30
0.0
  0
SPLINE
  5
1C39
102
{ACAD_REACTORS
330
1C5C
102
}
330
A
100
AcDbEntity
  8
0
 62
     1
370
    13
100
AcDbSpline
210
0.0
220
0.0
230
1.0
 70
     8
 71
     3
 72
     8
 73
     4
 74
     0
 42
0.0000000001
 43
0.0000000001
 40
0.0
 40
0.0
 40
0.0
 40
0.0
 40
1.0
 40
1.0
 40
1.0
 40
1.0
 10
90.19297875643614
 20
-39.46952138108891
 30
0.0
 10
90.61029692082964
 20
-39.83091891145388
 30
0.0
 10
90.61029692082964
 20
-40.19315107814744
 30
0.0
 10
90.19297875643614
 20
-40.55580056300524
 30
0.0
  0
SPLINE
  5
1C3A
102
{ACAD_REACTORS
330
1C5C
102
}
330
A
100
AcDbEntity
  8
0
 62
     1
370
    13
100
AcDbSpline
210
0.0
220
0.0
230
1.0
 70
     8
 71
     3
 72
     8
 73
     4
 74
     0
 42
0.0000000001
 43
0.0000000001
 40
0.0
 40
0.0
 40
0.0
 40
0.0
 40
1.0
 40
1.0
 40
1.0
 40
1.0
 10
85.5027399068175
 20
-49.75265826990923
 30
0.0
 10
84.56168744611021
 20
-50.40075337921242
 30
0.0
 10
84.56168744611021
 20
-51.04926580667992
 30
0.0
 10
85.5027399068175
 20
-51.69903018864058
 30
0.0
  0
SPLINE
  5
1C3B
102
{ACAD_REACTORS
330
1C5C
102
}
330
A
100
AcDbEntity
  8
0
 62
     1
370
    13
100
AcDbSpline
210
0.0
220
0.0
230
1.0
 70
     8
 71
     3
 72
     8
 73
     4
 74
     0
 42
0.0000000001
 43
0.0000000001
 40
0.0
 40
0.0
 40
0.0
 40
0.0
 40
1.0
 40
1.0
 40
1.0
 40
1.0
 10
85.5027399068175
 20
-40.48402183872954
 30
0.0
 10
84.56168744611021
 20
-43.57342820973482
 30
0.0
 10
84.56168744611021
 20
-46.66325189890406
 30
0.0
 10
85.5027399068175
 20
-49.75265826990923
 30
0.0
  0
SPLINE
  5
1C3C
102
{ACAD_REACTORS
330
1C5C
102
}
330
A
100
AcDbEntity
  8
0
 62
     1
370
    13
100
AcDbSpline
210
0.0
220
0.0
230
1.0
 70
     8
 71
     3
 72
     8
 73
     4
 74
     0
 42
0.0000000001
 43
0.0000000001
 40
0.0
 40
0.0
 40
0.0
 40
0.0
 40
1.0
 40
1.0
 40
1.0
 40
1.0
 10
85.5027399068175
 20
-33.1621746444455
 30
0.0
 10
84.56168744611021
 20
-35.60306858798329
 30
0.0
 10
84.56168744611021
 20
-38.04312789519197
 30
0.0
 10
85.5027399068175
 20
-40.48402183872954
 30
0.0
  0
SPLINE
  5
1C3D
102
{ACAD_REACTORS
330
1C5C
102
}
330
A
100
AcDbEntity
  8
0
 62
     1
370
    13
100
AcDbSpline
210
0.0
220
0.0
230
1.0
 70
     8
 71
     3
 72
     8
 73
     4
 74
     0
 42
0.0000000001
 43
0.0000000001
 40
0.0
 40
0.0
 40
0.0
 40
0.0
 40
1.0
 40
1.0
 40
1.0
 40
1.0
 10
84.84713307055544
 20
-33.79274239084409
 30
0.0
 10
84.96106092943476
 20
-33.59535089908606
 30
0.0
 10
85.17890101124821
 20
-33.38585718056057
 30
0.0
 10
85.50357454314637
 20
-33.16134000811674
 30
0.0
  0
LINE
  5
1C3E
102
{ACAD_REACTORS
330
1C5C
102
}
330
A
100
AcDbEntity
  8
0
 62
     1
370
    13
100
AcDbLine
 10
118.1382723168826
 20
-46.45626208936501
 30
0.0
 11
117.1170947686116
 21
-47.38103914166091
 31
0.0
  0
LINE
  5
1C3F
102
{ACAD_REACTORS
330
1C5C
102
}
330
A
100
AcDbEntity
  8
0
 62
     1
370
    13
100
AcDbLine
 10
117.1692595391609
 20
-47.38103914166091
 30
0.0
 11
117.1692595391609
 21
-37.32241942528442
 31
0.0
  0
LINE
  5
1C40
102
{ACAD_REACTORS
330
1C5C
102
}
330
A
100
AcDbEntity
  8
0
 62
     1
370
    13
100
AcDbLine
 10
84.22073850580074
 20
-46.45626208936501
 30
0.0
 11
85.2427506904004
 21
-47.38103914166091
 31
0.0
  0
LINE
  5
1C41
102
{ACAD_REACTORS
330
1C5C
102
}
330
A
100
AcDbEntity
  8
0
 62
     1
370
    13
100
AcDbLine
 10
85.18891664719367
 20
-37.32158478895561
 30
0.0
 11
85.18891664719367
 21
-47.38103914166091
 31
0.0
  0
LINE
  5
1C42
102
{ACAD_REACTORS
330
1C5C
102
}
330
A
100
AcDbEntity
  8
0
 62
     1
370
    13
100
AcDbLine
 10
84.25829714059615
 20
-34.81225066645739
 30
0.0
 11
84.25829714059615
 21
-50.04853684846429
 31
0.0
  0
LINE
  5
1C43
102
{ACAD_REACTORS
330
1C5C
102
}
330
A
100
AcDbEntity
  8
0
 62
     1
370
    13
100
AcDbLine
 10
90.23512789103987
 20
-32.47151308237433
 30
0.0
 11
90.23512789103987
 21
-52.38843979621853
 31
0.0
  0
LINE
  5
1C44
102
{ACAD_REACTORS
330
1C5C
102
}
330
A
100
AcDbEntity
  8
0
 62
     1
370
    13
100
AcDbLine
 10
117.2218416278745
 20
-47.38103914166091
 30
0.0
 11
85.13591724031567
 21
-47.38103914166091
 31
0.0
  0
LINE
  5
1C45
102
{ACAD_REACTORS
330
1C5C
102
}
330
A
100
AcDbEntity
  8
0
 62
     1
370
    13
100
AcDbLine
 10
90.22302566427248
 20
-47.53753345330855
 30
0.0
 11
92.28958521434909
 21
-47.53753345330855
 31
0.0
  0
LINE
  5
1C46
102
{ACAD_REACTORS
330
1C5C
102
}
330
A
100
AcDbEntity
  8
0
 62
     1
370
    13
100
AcDbLine
 10
90.23512789103987
 20
-49.75265826990923
 30
0.0
 11
85.5027399068175
 21
-49.75265826990923
 31
0.0
  0
LINE
  5
1C47
102
{ACAD_REACTORS
330
1C5C
102
}
330
A
100
AcDbEntity
  8
0
 62
     1
370
    13
100
AcDbLine
 10
90.23512789103987
 20
-51.69819555231182
 30
0.0
 11
85.5027399068175
 21
-51.69819555231182
 31
0.0
  0
LINE
  5
1C48
102
{ACAD_REACTORS
330
1C5C
102
}
330
A
100
AcDbEntity
  8
0
 62
     1
370
    13
100
AcDbLine
 10
84.25829714059615
 20
-50.04853684846429
 30
0.0
 11
84.84713307055539
 21
-51.06804512407759
 31
0.0
  0
LINE
  5
1C49
102
{ACAD_REACTORS
330
1C5C
102
}
330
A
100
AcDbEntity
  8
0
 62
     1
370
    13
100
AcDbLine
 10
90.23512789103987
 20
-52.38843979621853
 30
0.0
 11
92.22740480785448
 21
-52.38843979621853
 31
0.0
  0
LINE
  5
1C4A
102
{ACAD_REACTORS
330
1C5C
102
}
330
A
100
AcDbEntity
  8
0
 62
     1
370
    13
100
AcDbLine
 10
118.115319817841
 20
-38.21464566075777
 30
0.0
 11
84.24369100484234
 21
-38.21464566075777
 31
0.0
  0
LINE
  5
1C4B
102
{ACAD_REACTORS
330
1C5C
102
}
330
A
100
AcDbEntity
  8
0
 62
     1
370
    13
100
AcDbLine
 10
84.24369100484234
 20
-46.48797826985886
 30
0.0
 11
118.115319817841
 21
-46.48797826985886
 31
0.0
  0
LINE
  5
1C4C
102
{ACAD_REACTORS
330
1C5C
102
}
330
A
100
AcDbEntity
  8
0
 62
     1
370
    13
100
AcDbLine
 10
117.2218416278745
 20
-37.32158478895561
 30
0.0
 11
85.13591724031567
 21
-37.32158478895561
 31
0.0
  0
LINE
  5
1C4D
102
{ACAD_REACTORS
330
1C5C
102
}
330
A
100
AcDbEntity
  8
0
 62
     1
370
    13
100
AcDbLine
 10
90.22302566427248
 20
-37.07286316297707
 30
0.0
 11
92.28958521434909
 21
-37.07286316297707
 31
0.0
  0
LINE
  5
1C4E
102
{ACAD_REACTORS
330
1C5C
102
}
330
A
100
AcDbEntity
  8
0
 62
     1
370
    13
100
AcDbLine
 10
90.2989775701921
 20
-39.52252078796706
 30
0.0
 11
84.22073850580074
 21
-39.52252078796706
 31
0.0
  0
LINE
  5
1C4F
102
{ACAD_REACTORS
330
1C5C
102
}
330
A
100
AcDbEntity
  8
0
 62
     1
370
    13
100
AcDbLine
 10
84.22073850580074
 20
-38.24803111390931
 30
0.0
 11
85.2427506904004
 21
-37.32241942528442
 31
0.0
  0
LINE
  5
1C50
102
{ACAD_REACTORS
330
1C5C
102
}
330
A
100
AcDbEntity
  8
0
 62
     1
370
    13
100
AcDbLine
 10
84.25829714059615
 20
-34.81225066645739
 30
0.0
 11
84.84713307055539
 21
-33.79274239084415
 31
0.0
  0
LINE
  5
1C51
102
{ACAD_REACTORS
330
1C5C
102
}
330
A
100
AcDbEntity
  8
0
 62
     1
370
    13
100
AcDbLine
 10
91.95739995549182
 20
-42.35235526071934
 30
0.0
 11
90.32401666005574
 21
-45.05198646618086
 31
0.0
  0
LINE
  5
1C52
102
{ACAD_REACTORS
330
1C5C
102
}
330
A
100
AcDbEntity
  8
0
 62
     1
370
    13
100
AcDbLine
 10
90.2989775701921
 20
-40.50363579245603
 30
0.0
 11
84.22073850580074
 21
-40.50363579245603
 31
0.0
  0
LINE
  5
1C53
102
{ACAD_REACTORS
330
1C5C
102
}
330
A
100
AcDbEntity
  8
0
 62
     1
370
    13
100
AcDbLine
 10
84.22073850580074
 20
-43.33180099255079
 30
0.0
 11
90.2989775701921
 21
-43.33180099255079
 31
0.0
  0
LINE
  5
1C54
102
{ACAD_REACTORS
330
1C5C
102
}
330
A
100
AcDbEntity
  8
0
 62
     1
370
    13
100
AcDbLine
 10
90.2989775701921
 20
-41.37124025623014
 30
0.0
 11
84.22073850580074
 21
-41.37124025623014
 31
0.0
  0
LINE
  5
1C55
102
{ACAD_REACTORS
330
1C5C
102
}
330
A
100
AcDbEntity
  8
0
 62
     1
370
    13
100
AcDbLine
 10
90.2989775701921
 20
-44.14765800394021
 30
0.0
 11
84.22073850580074
 21
-44.14765800394021
 31
0.0
  0
LINE
  5
1C56
102
{ACAD_REACTORS
330
1C5C
102
}
330
A
100
AcDbEntity
  8
0
 62
     1
370
    13
100
AcDbLine
 10
90.2989775701921
 20
-45.23351986769196
 30
0.0
 11
84.22073850580074
 21
-45.23351986769196
 31
0.0
  0
LINE
  5
1C57
102
{ACAD_REACTORS
330
1C5C
102
}
330
A
100
AcDbEntity
  8
0
 62
     1
370
    13
100
AcDbLine
 10
90.23512789103987
 20
-40.48402183872959
 30
0.0
 11
85.5027399068175
 21
-40.48402183872959
 31
0.0
  0
LINE
  5
1C58
102
{ACAD_REACTORS
330
1C5C
102
}
330
A
100
AcDbEntity
  8
0
 62
     1
370
    13
100
AcDbLine
 10
91.95739995549182
 20
-42.35235526071934
 30
0.0
 11
90.32401666005574
 21
-39.65230673709336
 31
0.0
  0
LINE
  5
1C59
102
{ACAD_REACTORS
330
1C5C
102
}
330
A
100
AcDbEntity
  8
0
 62
     1
370
    13
100
AcDbLine
 10
90.23512789103987
 20
-32.47151308237433
 30
0.0
 11
92.22740480785448
 21
-32.47151308237433
 31
0.0
  0
LINE
  5
1C5A
102
{ACAD_REACTORS
330
1C5C
102
}
330
A
100
AcDbEntity
  8
0
 62
     1
370
    13
100
AcDbLine
 10
118.1382723168826
 20
-38.24803111390931
 30
0.0
 11
117.1170947686116
 21
-37.32241942528442
 31
0.0
  0
LINE
  5
1C5B
102
{ACAD_REACTORS
330
1C5C
102
}
330
A
100
AcDbEntity
  8
0
 62
     1
370
    13
100
AcDbLine
 10
118.0852729100046
 20
-38.23801547796372
 30
0.0
 11
118.0852729100046
 21
-46.46586040714603
 31
0.0
  0
LWPOLYLINE
  5
1C5D
102
{ACAD_REACTORS
330
1C77
102
}
330
A
100
AcDbEntity
  8
0
 62
     4
370
    13
100
AcDbPolyline
 90
        6
 70
     0
 43
0.0
 10
48.50550362801823
 20
135.3373027311298
 10
48.50550362801811
 20
-13.66269726887014
 10
49.50550362801812
 20
-14.66269726887014
 10
55.50550362801812
 20
-14.66269726887014
 10
56.50550362801812
 20
-13.66269726887014
 10
56.50550362801823
 20
135.3373027311298
  0
LWPOLYLINE
  5
1C5E
102
{ACAD_REACTORS
330
1C77
102
}
330
A
100
AcDbEntity
  8
0
 62
     4
370
    13
100
AcDbPolyline
 90
        6
 70
     0
 43
0.0
 10
57.00550362801823
 20
135.3373027311298
 10
57.00550362801812
 20
-13.66269726887014
 10
58.00550362801812
 20
-14.66269726887014
 10
64.00550362801812
 20
-14.66269726887014
 10
65.00550362801812
 20
-13.66269726887014
 10
65.00550362801823
 20
135.3373027311298
  0
LWPOLYLINE
  5
1C5F
102
{ACAD_REACTORS
330
1C77
102
}
330
A
100
AcDbEntity
  8
0
 62
     4
370
    13
100
AcDbPolyline
 90
        6
 70
     0
 43
0.0
 10
48.50550362801823
 20
135.3373027311298
 10
48.50550362801811
 20
-13.66269726887014
 10
49.50550362801812
 20
-14.66269726887014
 10
64.00550362801812
 20
-14.66269726887014
 10
65.00550362801812
 20
-13.66269726887014
 10
65.00550362801823
 20
135.3373027311298
  0
DIMENSION
  5
1C60
330
A
100
AcDbEntity
  8
寸法
370
    13
100
AcDbDimension
  2
*D11
 10
48.50550362801823
 20
138.4903645721707
 30
0.0
 11
56.75550362801823
 21
140.4903645721707
 31
0.0
 70
    32
  1
{\fMS UI Gothic|b0|i0|c128|p17;\U+2260}<>
 71
     5
 42
16.5
  3
ISO-25 1／10
100
AcDbAlignedDimension
 13
65.00550362801823
 23
133.2557860253131
 33
0.0
 14
48.50550362801823
 24
133.4903645007422
 34
0.0
 50
180.0
100
AcDbRotatedDimension
1001
ACAD
1000
DSTYLE
1002
{
1070
   279
1070
     1
1002
}
  0
LWPOLYLINE
  5
1C61
330
A
100
AcDbEntity
  8
0
370
    13
100
AcDbPolyline
 90
        4
 70
     1
 43
0.0
 10
51.73761339526254
 20
-17.16269726887014
 10
61.73761339526254
 20
-17.16269726887014
 10
61.73761339526254
 20
-14.66269726887014
 10
51.73761339526254
 20
-14.66269726887014
  0
SPLINE
  5
1C78
102
{ACAD_REACTORS
330
1D19
102
}
330
A
100
AcDbEntity
  8
0
 62
   253
370
    13
100
AcDbSpline
210
0.0
220
0.0
230
1.0
 70
     8
 71
     3
 72
     8
 73
     4
 74
     0
 42
0.0000000001
 43
0.0000000001
 40
1.0
 40
1.0
 40
1.0
 40
1.0
 40
2.0
 40
2.0
 40
2.0
 40
2.0
 10
75.00361221055763
 20
51.6839748997223
 30
0.0
 10
74.98900607480388
 20
51.68480953605106
 30
0.0
 10
74.97439993905013
 20
51.68647880870864
 30
0.0
 10
74.95979380329632
 20
51.68647880870864
 30
0.0
  0
SPLINE
  5
1C79
102
{ACAD_REACTORS
330
1D19
102
}
330
A
100
AcDbEntity
  8
0
 62
   253
370
    13
100
AcDbSpline
210
0.0
220
0.0
230
1.0
 70
     8
 71
     3
 72
     8
 73
     4
 74
     0
 42
0.0000000001
 43
0.0000000001
 40
0.0
 40
0.0
 40
0.0
 40
0.0
 40
1.0
 40
1.0
 40
1.0
 40
1.0
 10
75.45974096423975
 20
51.14020933151753
 30
0.0
 10
75.48394541777452
 20
51.41647395634604
 30
0.0
 10
75.28029415355053
 20
51.6589358098586
 30
0.0
 10
75.00361221055763
 20
51.6839748997223
 30
0.0
  0
SPLINE
  5
1C94
102
{ACAD_REACTORS
330
1D19
102
}
330
A
100
AcDbEntity
  8
0
 62
   253
370
    13
100
AcDbSpline
210
0.0
220
0.0
230
1.0
 70
     8
 71
     3
 72
     8
 73
     4
 74
     0
 42
0.0000000001
 43
0.0000000001
 40
0.0
 40
0.0
 40
0.0
 40
0.0
 40
1.0
 40
1.0
 40
1.0
 40
1.0
 10
71.53361167362564
 20
11.52044012216279
 30
0.0
 10
71.79443552637161
 20
11.52044012216279
 30
0.0
 10
72.01144097185622
 20
11.71866625024981
 30
0.0
 10
72.03355883456911
 20
11.97949010299552
 30
0.0
  0
SPLINE
  5
1C95
102
{ACAD_REACTORS
330
1D19
102
}
330
A
100
AcDbEntity
  8
0
 62
   253
370
    13
100
AcDbSpline
210
0.0
220
0.0
230
1.0
 70
     8
 71
     3
 72
     8
 73
     4
 74
     0
 42
0.0000000001
 43
0.0000000001
 40
0.0
 40
0.0
 40
0.0
 40
0.0
 40
1.0
 40
1.0
 40
1.0
 40
1.0
 10
65.55511165052434
 20
51.68647880870864
 30
0.0
 10
65.32099616029959
 20
51.68647880870864
 30
0.0
 10
65.11776221423997
 20
51.52330740643069
 30
0.0
 10
65.06559744369082
 20
51.29503437050757
 30
0.0
  0
LINE
  5
1CA1
102
{ACAD_REACTORS
330
1D19
102
}
330
A
100
AcDbEntity
  8
0
 62
   253
370
    13
100
AcDbLine
 10
65.00550362801814
 20
51.13937469518877
 30
0.0
 11
65.00550362801814
 21
11.94318342269318
 31
0.0
  0
LINE
  5
1CA6
102
{ACAD_REACTORS
330
1D19
102
}
330
A
100
AcDbEntity
  8
0
 62
   253
370
    13
100
AcDbLine
 10
71.53361167362564
 20
11.52044012216279
 30
0.0
 11
65.50127760731683
 21
11.52044012216279
 31
0.0
  0
LINE
  5
1CAA
102
{ACAD_REACTORS
330
1D19
102
}
330
A
100
AcDbEntity
  8
0
 62
   253
370
    13
100
AcDbLine
 10
74.43188632533858
 20
39.38519127688133
 30
0.0
 11
74.54038904808084
 21
40.6400669972127
 31
0.0
  0
LINE
  5
1CB2
102
{ACAD_REACTORS
330
1D19
102
}
330
A
100
AcDbEntity
  8
0
 62
   253
370
    13
100
AcDbLine
 10
73.31519314845337
 20
26.62578269327573
 30
0.0
 11
72.03355883456911
 21
11.97949010299552
 31
0.0
  0
LINE
  5
1CB6
102
{ACAD_REACTORS
330
1D19
102
}
330
A
100
AcDbEntity
  8
0
 62
   253
370
    13
100
AcDbLine
 10
65.06559744369082
 20
39.38519127688133
 30
0.0
 11
74.4310516890097
 21
39.38519127688133
 31
0.0
  0
LINE
  5
1CBA
102
{ACAD_REACTORS
330
1D19
102
}
330
A
100
AcDbEntity
  8
0
 62
   253
370
    13
100
AcDbLine
 10
74.43188632533858
 20
39.38519127688133
 30
0.0
 11
74.1906764263191
 21
36.62463161941829
 31
0.0
  0
LINE
  5
1CC1
102
{ACAD_REACTORS
330
1D19
102
}
330
A
100
AcDbEntity
  8
0
 62
   253
370
    13
100
AcDbLine
 10
65.55511165052434
 20
51.6864788087087
 30
0.0
 11
74.95895916696756
 21
51.6864788087087
 31
0.0
  0
LINE
  5
1CC2
102
{ACAD_REACTORS
330
1D19
102
}
330
A
100
AcDbEntity
  8
0
 62
   253
370
    13
100
AcDbLine
 10
65.06559744369082
 20
49.17547541355296
 30
0.0
 11
75.28738856234522
 21
49.17547541355296
 31
0.0
  0
LINE
  5
1CC3
102
{ACAD_REACTORS
330
1D19
102
}
330
A
100
AcDbEntity
  8
0
 62
   253
370
    13
100
AcDbLine
 10
74.54122368440962
 20
40.71101108515963
 30
0.0
 11
65.06559744369082
 21
40.71101108515963
 31
0.0
  0
LINE
  5
1CC4
102
{ACAD_REACTORS
330
1D19
102
}
330
A
100
AcDbEntity
  8
0
 62
   253
370
    13
100
AcDbLine
 10
74.84878717156764
 20
44.22608198384594
 30
0.0
 11
65.06559744369082
 21
44.22608198384594
 31
0.0
  0
LINE
  5
1CC5
102
{ACAD_REACTORS
330
1D19
102
}
330
A
100
AcDbEntity
  8
0
 62
   253
370
    13
100
AcDbLine
 10
75.45974096423972
 20
51.14020933151746
 30
0.0
 11
75.28822319867399
 21
49.17547541355296
 31
0.0
  0
LINE
  5
1CC6
102
{ACAD_REACTORS
330
1D19
102
}
330
A
100
AcDbEntity
  8
0
 62
   253
370
    13
100
AcDbLine
 10
74.84878717156764
 20
44.15430325957029
 30
0.0
 11
75.28822319867399
 21
49.17547541355296
 31
0.0
  0
LINE
  5
1CC7
102
{ACAD_REACTORS
330
1D19
102
}
330
A
100
AcDbEntity
  8
0
 62
   253
370
    13
100
AcDbLine
 10
74.54122368440962
 20
40.63923236088377
 30
0.0
 11
74.84878717156764
 21
44.15430325957029
 31
0.0
  0
SPLINE
  5
1CDB
102
{ACAD_REACTORS
330
1D1D
102
}
330
A
100
AcDbEntity
  8
0
 62
   253
370
    13
100
AcDbSpline
210
0.0
220
0.0
230
1.0
 70
     8
 71
     3
 72
     8
 73
     4
 74
     0
 42
0.0000000001
 43
0.0000000001
 40
0.0
 40
0.0
 40
0.0
 40
0.0
 40
1.0
 40
1.0
 40
1.0
 40
1.0
 10
65.00550362801814
 20
-3.036927888037588
 30
0.0
 10
65.04473153547116
 20
-3.281059014207905
 30
0.0
 10
65.25422525399671
 20
-3.459671188568258
 30
0.0
 10
65.5012776073176
 20
-3.459671188568258
 30
0.0
  0
SPLINE
  5
1CDC
102
{ACAD_REACTORS
330
1D1D
102
}
330
A
100
AcDbEntity
  8
0
 62
   253
370
    13
100
AcDbSpline
210
0.0
220
0.0
230
1.0
 70
     8
 71
     3
 72
     8
 73
     4
 74
     0
 42
0.0000000001
 43
0.0000000001
 40
0.0
 40
0.0
 40
0.0
 40
0.0
 40
1.0
 40
1.0
 40
1.0
 40
1.0
 10
69.57096434648303
 20
-3.459671188568258
 30
0.0
 10
69.83178819922901
 20
-3.459671188568258
 30
0.0
 10
70.04879364471358
 20
-3.2614450604813
 30
0.0
 10
70.07091150742647
 20
-3.00187316222864
 30
0.0
  0
SPLINE
  5
1CDF
102
{ACAD_REACTORS
330
1D1D
102
}
330
A
100
AcDbEntity
  8
0
 62
   253
370
    13
100
AcDbSpline
210
0.0
220
0.0
230
1.0
 70
     8
 71
     3
 72
     8
 73
     4
 74
     0
 42
0.0000000001
 43
0.0000000001
 40
0.0
 40
0.0
 40
0.0
 40
0.0
 40
1.0
 40
1.0
 40
1.0
 40
1.0
 10
65.50086028915322
 20
36.70511554348442
 30
0.0
 10
65.25505989032544
 20
36.70511554348442
 30
0.0
 10
65.04473153547113
 20
36.52650336912406
 30
0.0
 10
65.00550362801814
 20
36.28320687928251
 30
0.0
  0
SPLINE
  5
1CE4
102
{ACAD_REACTORS
330
1D1D
102
}
330
A
100
AcDbEntity
  8
0
 62
   253
370
    13
100
AcDbSpline
210
0.0
220
0.0
230
1.0
 70
     8
 71
     3
 72
     8
 73
     4
 74
     0
 42
0.0000000001
 43
0.0000000001
 40
0.0
 40
0.0
 40
0.0
 40
0.0
 40
1.0
 40
1.0
 40
1.0
 40
1.0
 10
73.49834559159027
 20
36.16009802078652
 30
0.0
 10
73.5221327269607
 20
36.43677996377945
 30
0.0
 10
73.31764682640789
 20
36.67965913545637
 30
0.0
 10
73.04179951974382
 20
36.70344627082695
 30
0.0
  0
SPLINE
  5
1CE5
102
{ACAD_REACTORS
330
1D1D
102
}
330
A
100
AcDbEntity
  8
0
 62
   253
370
    13
100
AcDbSpline
210
0.0
220
0.0
230
1.0
 70
     8
 71
     3
 72
     8
 73
     4
 74
     0
 42
0.0000000001
 43
0.0000000001
 40
1.0
 40
1.0
 40
1.0
 40
1.0
 40
2.0
 40
2.0
 40
2.0
 40
2.0
 10
73.04179951974382
 20
36.70344627082695
 30
0.0
 10
73.02719338399001
 20
36.70511554348442
 30
0.0
 10
73.01175261190744
 20
36.70511554348442
 30
0.0
 10
72.99798111248242
 20
36.70511554348442
 30
0.0
  0
LINE
  5
1CE8
102
{ACAD_REACTORS
330
1D1D
102
}
330
A
100
AcDbEntity
  8
0
 62
   253
370
    13
100
AcDbLine
 10
71.35168559610569
 20
11.62684121783123
 30
0.0
 11
70.07174614375521
 21
-3.00187316222864
 31
0.0
  0
LINE
  5
1CEA
102
{ACAD_REACTORS
330
1D1D
102
}
330
A
100
AcDbEntity
  8
0
 62
   253
370
    13
100
AcDbLine
 10
69.57096434648303
 20
-3.459671188568201
 30
0.0
 11
65.5012776073176
 21
-3.459671188568258
 31
0.0
  0
LINE
  5
1CED
102
{ACAD_REACTORS
330
1D1D
102
}
330
A
100
AcDbEntity
  8
0
 62
   253
370
    13
100
AcDbLine
 10
72.46923899819595
 20
24.40424532982151
 30
0.0
 11
72.22552519019012
 21
21.6249063549608
 31
0.0
  0
LINE
  5
1CF3
102
{ACAD_REACTORS
330
1D1D
102
}
330
A
100
AcDbEntity
  8
0
 62
   253
370
    13
100
AcDbLine
 10
72.88613984442503
 20
29.24680530944382
 30
0.0
 11
65.00550362801814
 21
29.24680530944382
 31
0.0
  0
LINE
  5
1CF4
102
{ACAD_REACTORS
330
1D1D
102
}
330
A
100
AcDbEntity
  8
0
 62
   253
370
    13
100
AcDbLine
 10
65.50086028915322
 20
36.70511554348447
 30
0.0
 11
72.99714647615369
 21
36.70511554348447
 31
0.0
  0
LINE
  5
1CF5
102
{ACAD_REACTORS
330
1D1D
102
}
330
A
100
AcDbEntity
  8
0
 62
   253
370
    13
100
AcDbLine
 10
65.00550362801814
 20
34.19536410282196
 30
0.0
 11
73.32557587153138
 21
34.19536410282196
 31
0.0
  0
LINE
  5
1CF7
102
{ACAD_REACTORS
330
1D1D
102
}
330
A
100
AcDbEntity
  8
0
 62
   253
370
    13
100
AcDbLine
 10
72.57941099359576
 20
25.73131709259288
 30
0.0
 11
65.00550362801814
 21
25.73131709259288
 31
0.0
  0
LINE
  5
1CF8
102
{ACAD_REACTORS
330
1D1D
102
}
330
A
100
AcDbEntity
  8
0
 62
   253
370
    13
100
AcDbLine
 10
65.00550362801814
 20
24.40424532982151
 30
0.0
 11
72.46923899819595
 21
24.40424532982151
 31
0.0
  0
LINE
  5
1CFA
102
{ACAD_REACTORS
330
1D1D
102
}
330
A
100
AcDbEntity
  8
0
 62
   253
370
    13
100
AcDbLine
 10
73.49834559159027
 20
36.16009802078647
 30
0.0
 11
73.32641050786017
 21
34.19536410282196
 31
0.0
  0
LINE
  5
1CFB
102
{ACAD_REACTORS
330
1D1D
102
}
330
A
100
AcDbEntity
  8
0
 62
   253
370
    13
100
AcDbLine
 10
72.88613984442503
 20
29.175026585168
 30
0.0
 11
73.32641050786017
 21
34.19411214832873
 31
0.0
  0
LINE
  5
1CFC
102
{ACAD_REACTORS
330
1D1D
102
}
330
A
100
AcDbEntity
  8
0
 62
   253
370
    13
100
AcDbLine
 10
72.46923899819595
 20
24.40424532982151
 30
0.0
 11
72.57857635726702
 21
25.65953836831723
 31
0.0
  0
LINE
  5
1CFD
102
{ACAD_REACTORS
330
1D1D
102
}
330
A
100
AcDbEntity
  8
0
 62
   253
370
    13
100
AcDbLine
 10
72.57941099359576
 20
25.65953836831723
 30
0.0
 11
72.88697448075376
 21
29.175026585168
 31
0.0
  0
SPLINE
  5
1D10
102
{ACAD_REACTORS
330
1D1D
102
}
330
A
100
AcDbEntity
  8
0
 62
   253
370
    13
100
AcDbSpline
210
0.0
220
0.0
230
1.0
 70
     8
 71
     3
 72
     8
 73
     4
 74
     0
 42
0.0000000001
 43
0.0000000001
 40
1.0
 40
1.0
 40
1.0
 40
1.0
 40
2.0
 40
2.0
 40
2.0
 40
2.0
 10
74.33444835383141
 20
19.1115839466785
 30
0.0
 10
73.89328554149591
 20
20.13821516416961
 30
0.0
 10
73.15938852658263
 20
21.01195117022043
 30
0.0
 10
72.22552519019012
 20
21.6249063549608
 30
0.0
  0
SPLINE
  5
1D11
102
{ACAD_REACTORS
330
1D1D
102
}
330
A
100
AcDbEntity
  8
0
 62
   253
370
    13
100
AcDbSpline
210
0.0
220
0.0
230
1.0
 70
     8
 71
     3
 72
     8
 73
     4
 74
     0
 42
0.0000000001
 43
0.0000000001
 40
0.0
 40
0.0
 40
0.0
 40
0.0
 40
1.0
 40
1.0
 40
1.0
 40
1.0
 10
71.35110201464971
 20
11.62659028100127
 30
0.0
 10
74.24168047273287
 20
12.86933630297758
 30
0.0
 10
75.57788154529743
 20
16.22066190385046
 30
0.0
 10
74.33444835383141
 20
19.1115839466785
 30
0.0
  0
SPLINE
  5
1D12
102
{ACAD_REACTORS
330
1D19
102
}
330
A
100
AcDbEntity
  8
0
 62
   253
370
    13
100
AcDbSpline
210
0.0
220
0.0
230
1.0
 70
     8
 71
     3
 72
     8
 73
     4
 74
     0
 42
0.0000000001
 43
0.0000000001
 40
0.0
 40
0.0
 40
0.0
 40
0.0
 40
1.0
 40
1.0
 40
1.0
 40
1.0
 10
65.00550362801814
 20
11.9431834226934
 30
0.0
 10
65.04473153547116
 20
11.69905229652309
 30
0.0
 10
65.25422525399671
 20
11.52044012216274
 30
0.0
 10
65.5012776073176
 20
11.52044012216274
 30
0.0
  0
SPLINE
  5
1D15
102
{ACAD_REACTORS
330
1D19
102
}
330
A
100
AcDbEntity
  8
0
 62
   253
370
    13
100
AcDbSpline
210
0.0
220
0.0
230
1.0
 70
     8
 71
     3
 72
     8
 73
     4
 74
     0
 42
0.0000000001
 43
0.0000000001
 40
1.0
 40
1.0
 40
1.0
 40
1.0
 40
2.0
 40
2.0
 40
2.0
 40
2.0
 10
76.29959958996039
 20
34.11130921113599
 30
0.0
 10
75.85843677762489
 20
35.1379404286271
 30
0.0
 10
75.1245397627116
 20
36.01167643467792
 30
0.0
 10
74.1906764263191
 20
36.62463161941829
 30
0.0
  0
SPLINE
  5
1D16
102
{ACAD_REACTORS
330
1D19
102
}
330
A
100
AcDbEntity
  8
0
 62
   253
370
    13
100
AcDbSpline
210
0.0
220
0.0
230
1.0
 70
     8
 71
     3
 72
     8
 73
     4
 74
     0
 42
0.0000000001
 43
0.0000000001
 40
0.0
 40
0.0
 40
0.0
 40
0.0
 40
1.0
 40
1.0
 40
1.0
 40
1.0
 10
73.31519314845337
 20
26.62578269327573
 30
0.0
 10
76.20683170886184
 20
27.86906156743507
 30
0.0
 10
77.5430327814264
 20
31.22038716830795
 30
0.0
 10
76.29959958996039
 20
34.11130921113599
 30
0.0
  0
LINE
  5
1D1C
102
{ACAD_REACTORS
330
1D1D
102
}
330
A
100
AcDbEntity
  8
0
 62
   253
370
    13
100
AcDbLine
 10
65.00550362801814
 20
36.28320687928251
 30
0.0
 11
65.00550362801814
 21
-3.036927888037801
 31
0.0
  0
SPLINE
  5
1D20
102
{ACAD_REACTORS
330
1D85
102
}
330
A
100
AcDbEntity
  8
0
 62
   253
370
    13
100
AcDbSpline
210
0.0
220
0.0
230
1.0
 70
     8
 71
     3
 72
     8
 73
     4
 74
     0
 42
0.0000000001
 43
0.0000000001
 40
15.0
 40
15.0
 40
15.0
 40
15.0
 40
16.0
 40
16.0
 40
16.0
 40
16.0
 10
28.00962467756827
 20
70.47761161760255
 30
0.0
 10
28.21995303242252
 20
70.26144080844673
 30
0.0
 10
28.50706792952522
 20
70.14375708608773
 30
0.0
 10
28.80545041706662
 20
70.15043417671799
 30
0.0
  0
SPLINE
  5
1D21
102
{ACAD_REACTORS
330
1D85
102
}
330
A
100
AcDbEntity
  8
0
 62
   253
370
    13
100
AcDbSpline
210
0.0
220
0.0
230
1.0
 70
     8
 71
     3
 72
     8
 73
     4
 74
     0
 42
0.0000000001
 43
0.0000000001
 40
14.0
 40
14.0
 40
14.0
 40
14.0
 40
15.0
 40
15.0
 40
15.0
 40
15.0
 10
28.01630176819853
 20
72.04255473407821
 30
0.0
 10
27.59188919501028
 20
71.61271702475275
 30
0.0
 10
27.58896796785959
 20
70.91203982673616
 30
0.0
 10
28.00962467756827
 20
70.47761161760255
 30
0.0
  0
SPLINE
  5
1D22
102
{ACAD_REACTORS
330
1D85
102
}
330
A
100
AcDbEntity
  8
0
 62
   253
370
    13
100
AcDbSpline
210
0.0
220
0.0
230
1.0
 70
    24
 71
     3
 72
     8
 73
     4
 74
     0
 42
0.0000000001
 43
0.0000000001
 40
13.0
 40
13.0
 40
13.0
 40
13.0
 40
14.0
 40
14.0
 40
14.0
 40
14.0
 10
28.25041725842325
 20
72.26832386101503
 30
0.0
 10
28.25041725842325
 20
72.26832386101503
 30
0.0
 10
28.01630176819853
 20
72.04255473407821
 30
0.0
 10
28.01630176819853
 20
72.04255473407821
 30
0.0
  0
SPLINE
  5
1D23
102
{ACAD_REACTORS
330
1D85
102
}
330
A
100
AcDbEntity
  8
0
 62
   253
370
    13
100
AcDbSpline
210
0.0
220
0.0
230
1.0
 70
     8
 71
     3
 72
     8
 73
     4
 74
     0
 42
0.0000000001
 43
0.0000000001
 40
12.0
 40
12.0
 40
12.0
 40
12.0
 40
13.0
 40
13.0
 40
13.0
 40
13.0
 10
31.36778394644275
 20
77.65715331782835
 30
0.0
 10
30.68546874765937
 20
75.24755823662028
 30
0.0
 10
29.84123410109131
 20
73.87750270291653
 30
0.0
 10
28.25041725842325
 20
72.26832386101503
 30
0.0
  0
SPLINE
  5
1D24
102
{ACAD_REACTORS
330
1D85
102
}
330
A
100
AcDbEntity
  8
0
 62
   253
370
    13
100
AcDbSpline
210
0.0
220
0.0
230
1.0
 70
    24
 71
     3
 72
     8
 73
     4
 74
     0
 42
0.0000000001
 43
0.0000000001
 40
11.0
 40
11.0
 40
11.0
 40
11.0
 40
12.0
 40
12.0
 40
12.0
 40
12.0
 10
31.49172744126761
 20
78.02105475717954
 30
0.0
 10
31.49172744126761
 20
78.02105475717954
 30
0.0
 10
31.36778394644275
 20
77.65715331782835
 30
0.0
 10
31.36778394644275
 20
77.65715331782835
 30
0.0
  0
SPLINE
  5
1D25
102
{ACAD_REACTORS
330
1D85
102
}
330
A
100
AcDbEntity
  8
0
 62
   253
370
    13
100
AcDbSpline
210
0.0
220
0.0
230
1.0
 70
     8
 71
     3
 72
     8
 73
     4
 74
     0
 42
0.0000000001
 43
0.0000000001
 40
10.0
 40
10.0
 40
10.0
 40
10.0
 40
11.0
 40
11.0
 40
11.0
 40
11.0
 10
32.39563858534395
 20
78.81145536054081
 30
0.0
 10
31.96663551234738
 20
78.75595204467643
 30
0.0
 10
31.6110804362842
 20
78.44588464853209
 30
0.0
 10
31.49172744126761
 20
78.02105475717954
 30
0.0
  0
SPLINE
  5
1D26
102
{ACAD_REACTORS
330
1D85
102
}
330
A
100
AcDbEntity
  8
0
 62
   253
370
    13
100
AcDbSpline
210
0.0
220
0.0
230
1.0
 70
     8
 71
     3
 72
     8
 73
     4
 74
     0
 42
0.0000000001
 43
0.0000000001
 40
9.0
 40
9.0
 40
9.0
 40
9.0
 40
10.0
 40
10.0
 40
10.0
 40
10.0
 10
36.61722913634858
 20
79.44744824307647
 30
0.0
 10
35.07774242790097
 20
79.16534116394652
 30
0.0
 10
32.39563858534395
 20
78.81145536054081
 30
0.0
 10
32.39563858534395
 20
78.81145536054081
 30
0.0
  0
SPLINE
  5
1D27
102
{ACAD_REACTORS
330
1D85
102
}
330
A
100
AcDbEntity
  8
0
 62
   253
370
    13
100
AcDbSpline
210
0.0
220
0.0
230
1.0
 70
    24
 71
     3
 72
     8
 73
     4
 74
     0
 42
0.0000000001
 43
0.0000000001
 40
8.0
 40
8.0
 40
8.0
 40
8.0
 40
9.0
 40
9.0
 40
9.0
 40
9.0
 10
37.03329534624888
 20
79.53717164842109
 30
0.0
 10
37.03329534624888
 20
79.53717164842109
 30
0.0
 10
36.61722913634858
 20
79.44744824307647
 30
0.0
 10
36.61722913634858
 20
79.44744824307647
 30
0.0
  0
SPLINE
  5
1D28
102
{ACAD_REACTORS
330
1D85
102
}
330
A
100
AcDbEntity
  8
0
 62
   253
370
    13
100
AcDbSpline
210
0.0
220
0.0
230
1.0
 70
     8
 71
     3
 72
    11
 73
     7
 74
     0
 42
0.0000000001
 43
0.0000000001
 40
6.0
 40
6.0
 40
6.0
 40
6.0
 40
7.0
 40
7.0
 40
7.0
 40
8.0
 40
8.0
 40
8.0
 40
8.0
 10
38.30945429296426
 20
78.44755392118978
 30
0.0
 10
38.30945429296426
 20
79.05934235019057
 30
0.0
 10
37.82369594961025
 20
79.55428169316125
 30
0.0
 10
37.22484438370557
 20
79.55428169316125
 30
0.0
 10
37.16057738638895
 20
79.55428169316125
 30
0.0
 10
37.09672770723674
 20
79.54843923885957
 30
0.0
 10
37.03329534624888
 20
79.53717164842109
 30
0.0
  0
SPLINE
  5
1D29
102
{ACAD_REACTORS
330
1D85
102
}
330
A
100
AcDbEntity
  8
0
 62
   253
370
    13
100
AcDbSpline
210
0.0
220
0.0
230
1.0
 70
    24
 71
     3
 72
     8
 73
     4
 74
     0
 42
0.0000000001
 43
0.0000000001
 40
5.0
 40
5.0
 40
5.0
 40
5.0
 40
6.0
 40
6.0
 40
6.0
 40
6.0
 10
38.30945429296426
 20
77.8466157644631
 30
0.0
 10
38.30945429296426
 20
77.8466157644631
 30
0.0
 10
38.30945429296426
 20
78.44755392118978
 30
0.0
 10
38.30945429296426
 20
78.44755392118978
 30
0.0
  0
SPLINE
  5
1D2A
102
{ACAD_REACTORS
330
1D85
102
}
330
A
100
AcDbEntity
  8
0
 62
   253
370
    13
100
AcDbSpline
210
0.0
220
0.0
230
1.0
 70
    24
 71
     3
 72
     8
 73
     4
 74
     0
 42
0.0000000001
 43
0.0000000001
 40
4.0
 40
4.0
 40
4.0
 40
4.0
 40
5.0
 40
5.0
 40
5.0
 40
5.0
 10
38.30945429296426
 20
72.59049348392673
 30
0.0
 10
38.30945429296426
 20
72.59049348392673
 30
0.0
 10
38.30945429296426
 20
77.8466157644631
 30
0.0
 10
38.30945429296426
 20
77.8466157644631
 30
0.0
  0
SPLINE
  5
1D2B
102
{ACAD_REACTORS
330
1D85
102
}
330
A
100
AcDbEntity
  8
0
 62
   253
370
    13
100
AcDbSpline
210
0.0
220
0.0
230
1.0
 70
    24
 71
     3
 72
     8
 73
     4
 74
     0
 42
0.0000000001
 43
0.0000000001
 40
3.0
 40
3.0
 40
3.0
 40
3.0
 40
4.0
 40
4.0
 40
4.0
 40
4.0
 10
38.30945429296426
 20
71.98955532720012
 30
0.0
 10
38.30945429296426
 20
71.98955532720012
 30
0.0
 10
38.30945429296426
 20
72.59049348392673
 30
0.0
 10
38.30945429296426
 20
72.59049348392673
 30
0.0
  0
SPLINE
  5
1D2C
102
{ACAD_REACTORS
330
1D85
102
}
330
A
100
AcDbEntity
  8
0
 62
   253
370
    13
100
AcDbSpline
210
0.0
220
0.0
230
1.0
 70
     8
 71
     3
 72
     8
 73
     4
 74
     0
 42
0.0000000001
 43
0.0000000001
 40
2.0
 40
2.0
 40
2.0
 40
2.0
 40
3.0
 40
3.0
 40
3.0
 40
3.0
 10
37.38300796801067
 20
70.83483596632331
 30
0.0
 10
37.91425399128368
 20
70.91454373572251
 30
0.0
 10
38.30945429296426
 20
71.44119925918713
 30
0.0
 10
38.30945429296426
 20
71.98955532720012
 30
0.0
  0
SPLINE
  5
1D2D
102
{ACAD_REACTORS
330
1D85
102
}
330
A
100
AcDbEntity
  8
0
 62
   253
370
    13
100
AcDbSpline
210
0.0
220
0.0
230
1.0
 70
    24
 71
     3
 72
     8
 73
     4
 74
     0
 42
0.0000000001
 43
0.0000000001
 40
1.0
 40
1.0
 40
1.0
 40
1.0
 40
2.0
 40
2.0
 40
2.0
 40
2.0
 10
37.03997243687914
 20
70.78893096824001
 30
0.0
 10
37.03997243687914
 20
70.78893096824001
 30
0.0
 10
37.38300796801067
 20
70.83483596632331
 30
0.0
 10
37.38300796801067
 20
70.83483596632331
 30
0.0
  0
SPLINE
  5
1D2E
102
{ACAD_REACTORS
330
1D85
102
}
330
A
100
AcDbEntity
  8
0
 62
   253
370
    13
100
AcDbSpline
210
0.0
220
0.0
230
1.0
 70
     8
 71
     3
 72
     8
 73
     4
 74
     0
 42
0.0000000001
 43
0.0000000001
 40
0.0
 40
0.0
 40
0.0
 40
0.0
 40
1.0
 40
1.0
 40
1.0
 40
1.0
 10
28.80545041706662
 20
70.15043417671799
 30
0.0
 10
31.67701670625834
 20
70.21887435567854
 30
0.0
 10
34.19845305552385
 20
70.36159716790113
 30
0.0
 10
37.03997243687914
 20
70.78893096824001
 30
0.0
  0
SPLINE
  5
1D2F
102
{ACAD_REACTORS
330
1D85
102
}
330
A
100
AcDbEntity
  8
0
 62
   253
370
    13
100
AcDbSpline
210
0.0
220
0.0
230
1.0
 70
    24
 71
     3
 72
     8
 73
     4
 74
     0
 42
0.0000000001
 43
0.0000000001
 40
44.0
 40
44.0
 40
44.0
 40
44.0
 40
45.0
 40
45.0
 40
45.0
 40
45.0
 10
39.39322956589419
 20
78.99215412572331
 30
0.0
 10
39.39322956589419
 20
78.99215412572331
 30
0.0
 10
39.39322956589419
 20
70.57109088642673
 30
0.0
 10
39.39322956589419
 20
70.57109088642673
 30
0.0
  0
SPLINE
  5
1D30
102
{ACAD_REACTORS
330
1D85
102
}
330
A
100
AcDbEntity
  8
0
 62
   253
370
    13
100
AcDbSpline
210
0.0
220
0.0
230
1.0
 70
    24
 71
     3
 72
     8
 73
     4
 74
     0
 42
0.0000000001
 43
0.0000000001
 40
43.0
 40
43.0
 40
43.0
 40
43.0
 40
44.0
 40
44.0
 40
44.0
 40
44.0
 10
39.39322956589419
 20
79.61687941782023
 30
0.0
 10
39.39322956589419
 20
79.61687941782023
 30
0.0
 10
39.39322956589419
 20
78.99215412572331
 30
0.0
 10
39.39322956589419
 20
78.99215412572331
 30
0.0
  0
SPLINE
  5
1D31
102
{ACAD_REACTORS
330
1D85
102
}
330
A
100
AcDbEntity
  8
0
 62
   253
370
    13
100
AcDbSpline
210
0.0
220
0.0
230
1.0
 70
     8
 71
     3
 72
     8
 73
     4
 74
     0
 42
0.0000000001
 43
0.0000000001
 40
42.0
 40
42.0
 40
42.0
 40
42.0
 40
43.0
 40
43.0
 40
43.0
 40
43.0
 10
48.40980582578018
 20
94.23762130734658
 30
0.0
 10
47.05185251884373
 20
91.63689450684618
 30
0.0
 10
39.39322956589419
 20
80.8892825010561
 30
0.0
 10
39.39322956589419
 20
79.61687941782023
 30
0.0
  0
SPLINE
  5
1D32
102
{ACAD_REACTORS
330
1D85
102
}
330
A
100
AcDbEntity
  8
0
 62
   253
370
    13
100
AcDbSpline
210
0.0
220
0.0
230
1.0
 70
    24
 71
     3
 72
     8
 73
     4
 74
     0
 42
0.0000000001
 43
0.0000000001
 40
41.0
 40
41.0
 40
41.0
 40
41.0
 40
42.0
 40
42.0
 40
42.0
 40
42.0
 10
48.54293032022169
 20
94.45546138915998
 30
0.0
 10
48.54293032022169
 20
94.45546138915998
 30
0.0
 10
48.40980582578018
 20
94.23762130734658
 30
0.0
 10
48.40980582578018
 20
94.23762130734658
 30
0.0
  0
SPLINE
  5
1D33
102
{ACAD_REACTORS
330
1D85
102
}
330
A
100
AcDbEntity
  8
0
 62
   253
370
    13
100
AcDbSpline
210
0.0
220
0.0
230
1.0
 70
     8
 71
     3
 72
     8
 73
     4
 74
     0
 42
0.0000000001
 43
0.0000000001
 40
40.0
 40
40.0
 40
40.0
 40
40.0
 40
41.0
 40
41.0
 40
41.0
 40
41.0
 10
48.38685332673859
 20
94.97919568547386
 30
0.0
 10
48.57214259172926
 20
94.878622007855
 30
0.0
 10
48.64225204334733
 20
94.64450651763021
 30
0.0
 10
48.54293032022169
 20
94.45546138915998
 30
0.0
  0
SPLINE
  5
1D34
102
{ACAD_REACTORS
330
1D85
102
}
330
A
100
AcDbEntity
  8
0
 62
   253
370
    13
100
AcDbSpline
210
0.0
220
0.0
230
1.0
 70
     8
 71
     3
 72
     8
 73
     4
 74
     0
 42
0.0000000001
 43
0.0000000001
 40
39.0
 40
39.0
 40
39.0
 40
39.0
 40
40.0
 40
40.0
 40
40.0
 40
40.0
 10
47.87730784801405
 20
94.82729187363466
 30
0.0
 10
47.97829884379726
 20
95.01091186596781
 30
0.0
 10
48.20448528889855
 20
95.07851740859948
 30
0.0
 10
48.38685332673859
 20
94.97919568547386
 30
0.0
  0
SPLINE
  5
1D35
102
{ACAD_REACTORS
330
1D85
102
}
330
A
100
AcDbEntity
  8
0
 62
   253
370
    13
100
AcDbSpline
210
0.0
220
0.0
230
1.0
 70
    24
 71
     3
 72
     8
 73
     4
 74
     0
 42
0.0000000001
 43
0.0000000001
 40
38.0
 40
38.0
 40
38.0
 40
38.0
 40
39.0
 40
39.0
 40
39.0
 40
39.0
 10
47.71580571839379
 20
94.49218538762663
 30
0.0
 10
47.71580571839379
 20
94.49218538762663
 30
0.0
 10
47.87730784801405
 20
94.82729187363466
 30
0.0
 10
47.87730784801405
 20
94.82729187363466
 30
0.0
  0
SPLINE
  5
1D36
102
{ACAD_REACTORS
330
1D85
102
}
330
A
100
AcDbEntity
  8
0
 62
   253
370
    13
100
AcDbSpline
210
0.0
220
0.0
230
1.0
 70
     8
 71
     3
 72
     8
 73
     4
 74
     0
 42
0.0000000001
 43
0.0000000001
 40
37.0
 40
37.0
 40
37.0
 40
37.0
 40
38.0
 40
38.0
 40
38.0
 40
38.0
 10
39.87523204576863
 20
84.64055548078917
 30
0.0
 10
42.19802494878289
 20
86.77805911881277
 30
0.0
 10
45.75774889105949
 20
90.91702067326755
 30
0.0
 10
47.71580571839379
 20
94.49218538762663
 30
0.0
  0
SPLINE
  5
1D37
102
{ACAD_REACTORS
330
1D85
102
}
330
A
100
AcDbEntity
  8
0
 62
   253
370
    13
100
AcDbSpline
210
0.0
220
0.0
230
1.0
 70
     8
 71
     3
 72
     8
 73
     4
 74
     0
 42
0.0000000001
 43
0.0000000001
 40
36.0
 40
36.0
 40
36.0
 40
36.0
 40
37.0
 40
37.0
 40
37.0
 40
37.0
 10
31.21045499846641
 20
80.88594395574089
 30
0.0
 10
32.36433972301446
 20
81.08250081117015
 30
0.0
 10
37.55118718826125
 20
82.50388647909451
 30
0.0
 10
39.87523204576863
 20
84.64055548078917
 30
0.0
  0
SPLINE
  5
1D38
102
{ACAD_REACTORS
330
1D85
102
}
330
A
100
AcDbEntity
  8
0
 62
   253
370
    13
100
AcDbSpline
210
0.0
220
0.0
230
1.0
 70
     8
 71
     3
 72
     8
 73
     4
 74
     0
 42
0.0000000001
 43
0.0000000001
 40
35.0
 40
35.0
 40
35.0
 40
35.0
 40
36.0
 40
36.0
 40
36.0
 40
36.0
 10
18.16216795237474
 20
79.2922058859219
 30
0.0
 10
22.63957453815263
 20
79.62939896275216
 30
0.0
 10
26.78479586507327
 20
80.1322673508462
 30
0.0
 10
31.21045499846641
 20
80.88594395574089
 30
0.0
  0
SPLINE
  5
1D39
102
{ACAD_REACTORS
330
1D85
102
}
330
A
100
AcDbEntity
  8
0
 62
   253
370
    13
100
AcDbSpline
210
0.0
220
0.0
230
1.0
 70
    24
 71
     3
 72
     8
 73
     4
 74
     0
 42
0.0000000001
 43
0.0000000001
 40
34.0
 40
34.0
 40
34.0
 40
34.0
 40
35.0
 40
35.0
 40
35.0
 40
35.0
 10
17.84917932907958
 20
79.24671820600323
 30
0.0
 10
17.84917932907958
 20
79.24671820600323
 30
0.0
 10
18.16216795237474
 20
79.2922058859219
 30
0.0
 10
18.16216795237474
 20
79.2922058859219
 30
0.0
  0
SPLINE
  5
1D3A
102
{ACAD_REACTORS
330
1D85
102
}
330
A
100
AcDbEntity
  8
0
 62
   253
370
    13
100
AcDbSpline
210
0.0
220
0.0
230
1.0
 70
     8
 71
     3
 72
     8
 73
     4
 74
     0
 42
0.0000000001
 43
0.0000000001
 40
33.0
 40
33.0
 40
33.0
 40
33.0
 40
34.0
 40
34.0
 40
34.0
 40
34.0
 10
17.575001295073
 20
78.97420944465418
 30
0.0
 10
17.57667056773064
 20
79.12611325649348
 30
0.0
 10
17.69977942622668
 20
79.24838747866082
 30
0.0
 10
17.84917932907958
 20
79.24671820600323
 30
0.0
  0
SPLINE
  5
1D3B
102
{ACAD_REACTORS
330
1D85
102
}
330
A
100
AcDbEntity
  8
0
 62
   253
370
    13
100
AcDbSpline
210
0.0
220
0.0
230
1.0
 70
     8
 71
     3
 72
     8
 73
     4
 74
     0
 42
0.0000000001
 43
0.0000000001
 40
32.0
 40
32.0
 40
32.0
 40
32.0
 40
33.0
 40
33.0
 40
33.0
 40
33.0
 10
17.84584078376443
 20
78.69794481982566
 30
0.0
 10
17.69727551724034
 20
78.69794481982566
 30
0.0
 10
17.59711915778601
 20
78.70295263779846
 30
0.0
 10
17.575001295073
 20
78.97420944465418
 30
0.0
  0
SPLINE
  5
1D3C
102
{ACAD_REACTORS
330
1D85
102
}
330
A
100
AcDbEntity
  8
0
 62
   253
370
    13
100
AcDbSpline
210
0.0
220
0.0
230
1.0
 70
    24
 71
     3
 72
     8
 73
     4
 74
     0
 42
0.0000000001
 43
0.0000000001
 40
31.0
 40
31.0
 40
31.0
 40
31.0
 40
32.0
 40
32.0
 40
32.0
 40
32.0
 10
18.31699299136474
 20
78.69794481982566
 30
0.0
 10
18.31699299136474
 20
78.69794481982566
 30
0.0
 10
17.84584078376443
 20
78.69794481982566
 30
0.0
 10
17.84584078376443
 20
78.69794481982566
 30
0.0
  0
SPLINE
  5
1D3D
102
{ACAD_REACTORS
330
1D85
102
}
330
A
100
AcDbEntity
  8
0
 62
   253
370
    13
100
AcDbSpline
210
0.0
220
0.0
230
1.0
 70
    24
 71
     3
 72
     8
 73
     4
 74
     0
 42
0.0000000001
 43
0.0000000001
 40
30.0
 40
30.0
 40
30.0
 40
30.0
 40
31.0
 40
31.0
 40
31.0
 40
31.0
 10
27.70373046306778
 20
78.69794481982566
 30
0.0
 10
27.70373046306778
 20
78.69794481982566
 30
0.0
 10
18.31699299136474
 20
78.69794481982566
 30
0.0
 10
18.31699299136474
 20
78.69794481982566
 30
0.0
  0
SPLINE
  5
1D3E
102
{ACAD_REACTORS
330
1D85
102
}
330
A
100
AcDbEntity
  8
0
 62
   253
370
    13
100
AcDbSpline
210
0.0
220
0.0
230
1.0
 70
    24
 71
     3
 72
     8
 73
     4
 74
     0
 42
0.0000000001
 43
0.0000000001
 40
29.0
 40
29.0
 40
29.0
 40
29.0
 40
30.0
 40
30.0
 40
30.0
 40
30.0
 10
28.29173175669817
 20
78.69794481982566
 30
0.0
 10
28.29173175669817
 20
78.69794481982566
 30
0.0
 10
27.70373046306778
 20
78.69794481982566
 30
0.0
 10
27.70373046306778
 20
78.69794481982566
 30
0.0
  0
SPLINE
  5
1D3F
102
{ACAD_REACTORS
330
1D85
102
}
330
A
100
AcDbEntity
  8
0
 62
   253
370
    13
100
AcDbSpline
210
0.0
220
0.0
230
1.0
 70
     8
 71
     3
 72
     8
 73
     4
 74
     0
 42
0.0000000001
 43
0.0000000001
 40
28.0
 40
28.0
 40
28.0
 40
28.0
 40
29.0
 40
29.0
 40
29.0
 40
29.0
 10
28.69736501248874
 20
78.61698509593342
 30
0.0
 10
28.56883101785561
 20
78.6708191391401
 30
0.0
 10
28.43111602360571
 20
78.69794481982566
 30
0.0
 10
28.29173175669817
 20
78.69794481982566
 30
0.0
  0
SPLINE
  5
1D40
102
{ACAD_REACTORS
330
1D85
102
}
330
A
100
AcDbEntity
  8
0
 62
   253
370
    13
100
AcDbSpline
210
0.0
220
0.0
230
1.0
 70
     8
 71
     3
 72
     8
 73
     4
 74
     0
 42
0.0000000001
 43
0.0000000001
 40
27.0
 40
27.0
 40
27.0
 40
27.0
 40
28.0
 40
28.0
 40
28.0
 40
28.0
 10
29.29663389655777
 20
77.17682011061126
 30
0.0
 10
29.52073375083708
 20
77.74312085969339
 30
0.0
 10
29.25323280746082
 20
78.38871206001013
 30
0.0
 10
28.69736501248874
 20
78.61698509593342
 30
0.0
  0
SPLINE
  5
1D41
102
{ACAD_REACTORS
330
1D85
102
}
330
A
100
AcDbEntity
  8
0
 62
   253
370
    13
100
AcDbSpline
210
0.0
220
0.0
230
1.0
 70
    24
 71
     3
 72
     8
 73
     4
 74
     0
 42
0.0000000001
 43
0.0000000001
 40
26.0
 40
26.0
 40
26.0
 40
26.0
 40
27.0
 40
27.0
 40
27.0
 40
27.0
 10
29.17895017419883
 20
76.85256389687762
 30
0.0
 10
29.17895017419883
 20
76.85256389687762
 30
0.0
 10
29.29663389655777
 20
77.17682011061126
 30
0.0
 10
29.29663389655777
 20
77.17682011061126
 30
0.0
  0
SPLINE
  5
1D42
102
{ACAD_REACTORS
330
1D85
102
}
330
A
100
AcDbEntity
  8
0
 62
   253
370
    13
100
AcDbSpline
210
0.0
220
0.0
230
1.0
 70
     8
 71
     3
 72
     8
 73
     4
 74
     0
 42
0.0000000001
 43
0.0000000001
 40
25.0
 40
25.0
 40
25.0
 40
25.0
 40
26.0
 40
26.0
 40
26.0
 40
26.0
 10
26.54984573851979
 20
73.52111299052435
 30
0.0
 10
27.91739736323725
 20
74.47760622331421
 30
0.0
 10
28.5575634274169
 20
75.28261296242923
 30
0.0
 10
29.17895017419883
 20
76.85256389687762
 30
0.0
  0
SPLINE
  5
1D43
102
{ACAD_REACTORS
330
1D85
102
}
330
A
100
AcDbEntity
  8
0
 62
   253
370
    13
100
AcDbSpline
210
0.0
220
0.0
230
1.0
 70
    24
 71
     3
 72
     8
 73
     4
 74
     0
 42
0.0000000001
 43
0.0000000001
 40
24.0
 40
24.0
 40
24.0
 40
24.0
 40
25.0
 40
25.0
 40
25.0
 40
25.0
 10
26.24812470566317
 20
73.30327290871085
 30
0.0
 10
26.24812470566317
 20
73.30327290871085
 30
0.0
 10
26.54984573851979
 20
73.52111299052435
 30
0.0
 10
26.54984573851979
 20
73.52111299052435
 30
0.0
  0
SPLINE
  5
1D44
102
{ACAD_REACTORS
330
1D85
102
}
330
A
100
AcDbEntity
  8
0
 62
   253
370
    13
100
AcDbSpline
210
0.0
220
0.0
230
1.0
 70
     8
 71
     3
 72
     8
 73
     4
 74
     0
 42
0.0000000001
 43
0.0000000001
 40
23.0
 40
23.0
 40
23.0
 40
23.0
 40
24.0
 40
24.0
 40
24.0
 40
24.0
 10
25.6355016403335
 20
73.10921996226793
 30
0.0
 10
25.85417635847571
 20
73.10921996226793
 30
0.0
 10
26.06700862231647
 20
73.17682550489959
 30
0.0
 10
26.24812470566317
 20
73.30327290871085
 30
0.0
  0
SPLINE
  5
1D45
102
{ACAD_REACTORS
330
1D85
102
}
330
A
100
AcDbEntity
  8
0
 62
   253
370
    13
100
AcDbSpline
210
0.0
220
0.0
230
1.0
 70
    24
 71
     3
 72
     8
 73
     4
 74
     0
 42
0.0000000001
 43
0.0000000001
 40
22.0
 40
22.0
 40
22.0
 40
22.0
 40
23.0
 40
23.0
 40
23.0
 40
23.0
 10
25.28161583692795
 20
73.10921996226793
 30
0.0
 10
25.28161583692795
 20
73.10921996226793
 30
0.0
 10
25.6355016403335
 20
73.10921996226793
 30
0.0
 10
25.6355016403335
 20
73.10921996226793
 30
0.0
  0
SPLINE
  5
1D46
102
{ACAD_REACTORS
330
1D85
102
}
330
A
100
AcDbEntity
  8
0
 62
   253
370
    13
100
AcDbSpline
210
0.0
220
0.0
230
1.0
 70
    24
 71
     3
 72
     8
 73
     4
 74
     0
 42
0.0000000001
 43
0.0000000001
 40
21.0
 40
21.0
 40
21.0
 40
21.0
 40
22.0
 40
22.0
 40
22.0
 40
22.0
 10
22.48933999897102
 20
73.10921996226793
 30
0.0
 10
22.48933999897102
 20
73.10921996226793
 30
0.0
 10
25.28161583692795
 20
73.10921996226793
 30
0.0
 10
25.28161583692795
 20
73.10921996226793
 30
0.0
  0
SPLINE
  5
1D47
102
{ACAD_REACTORS
330
1D85
102
}
330
A
100
AcDbEntity
  8
0
 62
   253
370
    13
100
AcDbSpline
210
0.0
220
0.0
230
1.0
 70
    24
 71
     3
 72
     8
 73
     4
 74
     0
 42
0.0000000001
 43
0.0000000001
 40
20.0
 40
20.0
 40
20.0
 40
20.0
 40
21.0
 40
21.0
 40
21.0
 40
21.0
 10
22.48933999897102
 20
73.80155079699673
 30
0.0
 10
22.48933999897102
 20
73.80155079699673
 30
0.0
 10
22.48933999897102
 20
73.10921996226793
 30
0.0
 10
22.48933999897102
 20
73.10921996226793
 30
0.0
  0
SPLINE
  5
1D48
102
{ACAD_REACTORS
330
1D85
102
}
330
A
100
AcDbEntity
  8
0
 62
   253
370
    13
100
AcDbSpline
210
0.0
220
0.0
230
1.0
 70
     8
 71
     3
 72
     8
 73
     4
 74
     0
 42
0.0000000001
 43
0.0000000001
 40
19.0
 40
19.0
 40
19.0
 40
19.0
 40
20.0
 40
20.0
 40
20.0
 40
20.0
 10
20.69821043739401
 20
70.17171740310212
 30
0.0
 10
20.21078282138253
 20
71.67865329472707
 30
0.0
 10
21.01328565151121
 20
73.30410754503962
 30
0.0
 10
22.48933999897102
 20
73.80155079699673
 30
0.0
  0
SPLINE
  5
1D49
102
{ACAD_REACTORS
330
1D85
102
}
330
A
100
AcDbEntity
  8
0
 62
   253
370
    13
100
AcDbSpline
210
0.0
220
0.0
230
1.0
 70
     8
 71
     3
 72
     8
 73
     4
 74
     0
 42
0.0000000001
 43
0.0000000001
 40
18.0
 40
18.0
 40
18.0
 40
18.0
 40
19.0
 40
19.0
 40
19.0
 40
19.0
 10
22.48933999897102
 20
68.34302920672988
 30
0.0
 10
21.64260144341651
 20
68.62847483117488
 30
0.0
 10
20.97823092570209
 20
69.30703416647876
 30
0.0
 10
20.69821043739401
 20
70.17171740310212
 30
0.0
  0
SPLINE
  5
1D4A
102
{ACAD_REACTORS
330
1D85
102
}
330
A
100
AcDbEntity
  8
0
 62
   253
370
    13
100
AcDbSpline
210
0.0
220
0.0
230
1.0
 70
    24
 71
     3
 72
     8
 73
     4
 74
     0
 42
0.0000000001
 43
0.0000000001
 40
17.0
 40
17.0
 40
17.0
 40
17.0
 40
18.0
 40
18.0
 40
18.0
 40
18.0
 10
22.48933999897102
 20
68.76326859827398
 30
0.0
 10
22.48933999897102
 20
68.76326859827398
 30
0.0
 10
22.48933999897102
 20
68.34302920672988
 30
0.0
 10
22.48933999897102
 20
68.34302920672988
 30
0.0
  0
SPLINE
  5
1D4B
102
{ACAD_REACTORS
330
1D85
102
}
330
A
100
AcDbEntity
  8
0
 62
   253
370
    13
100
AcDbSpline
210
0.0
220
0.0
230
1.0
 70
    24
 71
     3
 72
     8
 73
     4
 74
     0
 42
0.0000000001
 43
0.0000000001
 40
16.0
 40
16.0
 40
16.0
 40
16.0
 40
17.0
 40
17.0
 40
17.0
 40
17.0
 10
22.48933999897102
 20
69.03536004145863
 30
0.0
 10
22.48933999897102
 20
69.03536004145863
 30
0.0
 10
22.48933999897102
 20
68.76326859827398
 30
0.0
 10
22.48933999897102
 20
68.76326859827398
 30
0.0
  0
SPLINE
  5
1D4C
102
{ACAD_REACTORS
330
1D85
102
}
330
A
100
AcDbEntity
  8
0
 62
   253
370
    13
100
AcDbSpline
210
0.0
220
0.0
230
1.0
 70
    24
 71
     3
 72
     8
 73
     4
 74
     0
 42
0.0000000001
 43
0.0000000001
 40
15.0
 40
15.0
 40
15.0
 40
15.0
 40
16.0
 40
16.0
 40
16.0
 40
16.0
 10
25.03122493829178
 20
69.03536004145863
 30
0.0
 10
25.03122493829178
 20
69.03536004145863
 30
0.0
 10
22.48933999897102
 20
69.03536004145863
 30
0.0
 10
22.48933999897102
 20
69.03536004145863
 30
0.0
  0
SPLINE
  5
1D4F
102
{ACAD_REACTORS
330
1D85
102
}
330
A
100
AcDbEntity
  8
0
 62
   253
370
    13
100
AcDbSpline
210
0.0
220
0.0
230
1.0
 70
    24
 71
     3
 72
     8
 73
     4
 74
     0
 42
0.0000000001
 43
0.0000000001
 40
12.0
 40
12.0
 40
12.0
 40
12.0
 40
13.0
 40
13.0
 40
13.0
 40
13.0
 10
25.03122493829178
 20
67.8105312289637
 30
0.0
 10
25.03122493829178
 20
67.8105312289637
 30
0.0
 10
25.03122493829178
 20
69.03536004145863
 30
0.0
 10
25.03122493829178
 20
69.03536004145863
 30
0.0
  0
SPLINE
  5
1D50
102
{ACAD_REACTORS
330
1D85
102
}
330
A
100
AcDbEntity
  8
0
 62
   253
370
    13
100
AcDbSpline
210
0.0
220
0.0
230
1.0
 70
    24
 71
     3
 72
     8
 73
     4
 74
     0
 42
0.0000000001
 43
0.0000000001
 40
11.0
 40
11.0
 40
11.0
 40
11.0
 40
12.0
 40
12.0
 40
12.0
 40
12.0
 10
25.03122493829178
 20
67.20959307223714
 30
0.0
 10
25.03122493829178
 20
67.20959307223714
 30
0.0
 10
25.03122493829178
 20
67.8105312289637
 30
0.0
 10
25.03122493829178
 20
67.8105312289637
 30
0.0
  0
SPLINE
  5
1D51
102
{ACAD_REACTORS
330
1D85
102
}
330
A
100
AcDbEntity
  8
0
 62
   253
370
    13
100
AcDbSpline
210
0.0
220
0.0
230
1.0
 70
     8
 71
     3
 72
     8
 73
     4
 74
     0
 42
0.0000000001
 43
0.0000000001
 40
10.0
 40
10.0
 40
10.0
 40
10.0
 40
11.0
 40
11.0
 40
11.0
 40
11.0
 10
25.41056714972555
 20
66.82232181567989
 30
0.0
 10
25.20023879487112
 20
66.82232181567989
 30
0.0
 10
25.03122493829178
 20
66.99592617206755
 30
0.0
 10
25.03122493829178
 20
67.20959307223714
 30
0.0
  0
SPLINE
  5
1D52
102
{ACAD_REACTORS
330
1D85
102
}
330
A
100
AcDbEntity
  8
0
 62
   253
370
    13
100
AcDbSpline
210
0.0
220
0.0
230
1.0
 70
    24
 71
     3
 72
     8
 73
     4
 74
     0
 42
0.0000000001
 43
0.0000000001
 40
9.0
 40
9.0
 40
9.0
 40
9.0
 40
10.0
 40
10.0
 40
10.0
 40
10.0
 10
25.51823523613896
 20
66.82232181567989
 30
0.0
 10
25.51823523613896
 20
66.82232181567989
 30
0.0
 10
25.41056714972555
 20
66.82232181567989
 30
0.0
 10
25.41056714972555
 20
66.82232181567989
 30
0.0
  0
SPLINE
  5
1D53
102
{ACAD_REACTORS
330
1D85
102
}
330
A
100
AcDbEntity
  8
0
 62
   253
370
    13
100
AcDbSpline
210
0.0
220
0.0
230
1.0
 70
     8
 71
     3
 72
     8
 73
     4
 74
     0
 42
0.0000000001
 43
0.0000000001
 40
8.0
 40
8.0
 40
8.0
 40
8.0
 40
9.0
 40
9.0
 40
9.0
 40
9.0
 10
25.89799476573708
 20
67.20959307223714
 30
0.0
 10
25.89799476573708
 20
66.99592617206755
 30
0.0
 10
25.72772895466451
 20
66.82232181567989
 30
0.0
 10
25.51823523613896
 20
66.82232181567989
 30
0.0
  0
SPLINE
  5
1D54
102
{ACAD_REACTORS
330
1D85
102
}
330
A
100
AcDbEntity
  8
0
 62
   253
370
    13
100
AcDbSpline
210
0.0
220
0.0
230
1.0
 70
    24
 71
     3
 72
     8
 73
     4
 74
     0
 42
0.0000000001
 43
0.0000000001
 40
7.0
 40
7.0
 40
7.0
 40
7.0
 40
8.0
 40
8.0
 40
8.0
 40
8.0
 10
25.89799476573708
 20
67.8105312289637
 30
0.0
 10
25.89799476573708
 20
67.8105312289637
 30
0.0
 10
25.89799476573708
 20
67.20959307223714
 30
0.0
 10
25.89799476573708
 20
67.20959307223714
 30
0.0
  0
SPLINE
  5
1D55
102
{ACAD_REACTORS
330
1D85
102
}
330
A
100
AcDbEntity
  8
0
 62
   253
370
    13
100
AcDbSpline
210
0.0
220
0.0
230
1.0
 70
    24
 71
     3
 72
     8
 73
     4
 74
     0
 42
0.0000000001
 43
0.0000000001
 40
6.0
 40
6.0
 40
6.0
 40
6.0
 40
7.0
 40
7.0
 40
7.0
 40
7.0
 10
25.89799476573708
 20
68.43442188473196
 30
0.0
 10
25.89799476573708
 20
68.43442188473196
 30
0.0
 10
25.89799476573708
 20
67.8105312289637
 30
0.0
 10
25.89799476573708
 20
67.8105312289637
 30
0.0
  0
SPLINE
  5
1D56
102
{ACAD_REACTORS
330
1D85
102
}
330
A
100
AcDbEntity
  8
0
 62
   253
370
    13
100
AcDbSpline
210
0.0
220
0.0
230
1.0
 70
    24
 71
     3
 72
     8
 73
     4
 74
     0
 42
0.0000000001
 43
0.0000000001
 40
5.0
 40
5.0
 40
5.0
 40
5.0
 40
6.0
 40
6.0
 40
6.0
 40
6.0
 10
25.89799476573708
 20
69.03536004145863
 30
0.0
 10
25.89799476573708
 20
69.03536004145863
 30
0.0
 10
25.89799476573708
 20
68.43442188473196
 30
0.0
 10
25.89799476573708
 20
68.43442188473196
 30
0.0
  0
SPLINE
  5
1D57
102
{ACAD_REACTORS
330
1D85
102
}
330
A
100
AcDbEntity
  8
0
 62
   253
370
    13
100
AcDbSpline
210
0.0
220
0.0
230
1.0
 70
    24
 71
     3
 72
     8
 73
     4
 74
     0
 42
0.0000000001
 43
0.0000000001
 40
4.0
 40
4.0
 40
4.0
 40
4.0
 40
5.0
 40
5.0
 40
5.0
 40
5.0
 10
26.61244346317883
 20
69.03536004145863
 30
0.0
 10
26.61244346317883
 20
69.03536004145863
 30
0.0
 10
25.89799476573708
 20
69.03536004145863
 30
0.0
 10
25.89799476573708
 20
69.03536004145863
 30
0.0
  0
SPLINE
  5
1D58
102
{ACAD_REACTORS
330
1D85
102
}
330
A
100
AcDbEntity
  8
0
 62
   253
370
    13
100
AcDbSpline
210
0.0
220
0.0
230
1.0
 70
    24
 71
     3
 72
     8
 73
     4
 74
     0
 42
0.0000000001
 43
0.0000000001
 40
3.0
 40
3.0
 40
3.0
 40
3.0
 40
4.0
 40
4.0
 40
4.0
 40
4.0
 10
27.20127939313798
 20
69.03536004145863
 30
0.0
 10
27.20127939313798
 20
69.03536004145863
 30
0.0
 10
26.61244346317883
 20
69.03536004145863
 30
0.0
 10
26.61244346317883
 20
69.03536004145863
 30
0.0
  0
SPLINE
  5
1D59
102
{ACAD_REACTORS
330
1D85
102
}
330
A
100
AcDbEntity
  8
0
 62
   253
370
    13
100
AcDbSpline
210
0.0
220
0.0
230
1.0
 70
     8
 71
     3
 72
     8
 73
     4
 74
     0
 42
0.0000000001
 43
0.0000000001
 40
2.0
 40
2.0
 40
2.0
 40
2.0
 40
3.0
 40
3.0
 40
3.0
 40
3.0
 10
38.54690832850414
 20
69.86665782493045
 30
0.0
 10
34.66835330863094
 20
69.19936608006523
 30
0.0
 10
31.13450309254679
 20
69.02659636000627
 30
0.0
 10
27.20127939313798
 20
69.03536004145863
 30
0.0
  0
SPLINE
  5
1D5A
102
{ACAD_REACTORS
330
1D85
102
}
330
A
100
AcDbEntity
  8
0
 62
   253
370
    13
100
AcDbSpline
210
0.0
220
0.0
230
1.0
 70
    24
 71
     3
 72
     8
 73
     4
 74
     0
 42
0.0000000001
 43
0.0000000001
 40
1.0
 40
1.0
 40
1.0
 40
1.0
 40
2.0
 40
2.0
 40
2.0
 40
2.0
 10
38.94669912999316
 20
69.92383041345224
 30
0.0
 10
38.94669912999316
 20
69.92383041345224
 30
0.0
 10
38.54690832850414
 20
69.86665782493045
 30
0.0
 10
38.54690832850414
 20
69.86665782493045
 30
0.0
  0
SPLINE
  5
1D5B
102
{ACAD_REACTORS
330
1D85
102
}
330
A
100
AcDbEntity
  8
0
 62
   253
370
    13
100
AcDbSpline
210
0.0
220
0.0
230
1.0
 70
     8
 71
     3
 72
     8
 73
     4
 74
     0
 42
0.0000000001
 43
0.0000000001
 40
0.0
 40
0.0
 40
0.0
 40
0.0
 40
1.0
 40
1.0
 40
1.0
 40
1.0
 10
39.39322956589419
 20
70.57109088642673
 30
0.0
 10
39.39322956589419
 20
70.3006687158996
 30
0.0
 10
39.20835761906781
 20
69.96848345704242
 30
0.0
 10
38.94669912999316
 20
69.92383041345224
 30
0.0
  0
SPLINE
  5
1D5C
102
{ACAD_REACTORS
330
1D85
102
}
330
A
100
AcDbEntity
  8
0
 62
   253
370
    13
100
AcDbSpline
210
0.0
220
0.0
230
1.0
 70
    24
 71
     3
 72
     8
 73
     4
 74
     0
 42
0.0000000001
 43
0.0000000001
 40
7.0
 40
7.0
 40
7.0
 40
7.0
 40
8.0
 40
8.0
 40
8.0
 40
8.0
 10
22.68339294541388
 20
70.14208781343015
 30
0.0
 10
22.68339294541388
 20
70.14208781343015
 30
0.0
 10
21.89966943268294
 20
70.14208781343015
 30
0.0
 10
21.89966943268294
 20
70.14208781343015
 30
0.0
  0
SPLINE
  5
1D5D
102
{ACAD_REACTORS
330
1D85
102
}
330
A
100
AcDbEntity
  8
0
 62
   253
370
    13
100
AcDbSpline
210
0.0
220
0.0
230
1.0
 70
    24
 71
     3
 72
     8
 73
     4
 74
     0
 42
0.0000000001
 43
0.0000000001
 40
6.0
 40
6.0
 40
6.0
 40
6.0
 40
7.0
 40
7.0
 40
7.0
 40
7.0
 10
24.04510211582996
 20
70.14208781343015
 30
0.0
 10
24.04510211582996
 20
70.14208781343015
 30
0.0
 10
22.68339294541388
 20
70.14208781343015
 30
0.0
 10
22.68339294541388
 20
70.14208781343015
 30
0.0
  0
SPLINE
  5
1D5E
102
{ACAD_REACTORS
330
1D85
102
}
330
A
100
AcDbEntity
  8
0
 62
   253
370
    13
100
AcDbSpline
210
0.0
220
0.0
230
1.0
 70
    24
 71
     3
 72
     8
 73
     4
 74
     0
 42
0.0000000001
 43
0.0000000001
 40
5.0
 40
5.0
 40
5.0
 40
5.0
 40
6.0
 40
6.0
 40
6.0
 40
6.0
 10
24.87473062664426
 20
70.14208781343015
 30
0.0
 10
24.87473062664426
 20
70.14208781343015
 30
0.0
 10
24.04510211582996
 20
70.14208781343015
 30
0.0
 10
24.04510211582996
 20
70.14208781343015
 30
0.0
  0
SPLINE
  5
1D5F
102
{ACAD_REACTORS
330
1D85
102
}
330
A
100
AcDbEntity
  8
0
 62
   253
370
    13
100
AcDbSpline
210
0.0
220
0.0
230
1.0
 70
    24
 71
     3
 72
     8
 73
     4
 74
     0
 42
0.0000000001
 43
0.0000000001
 40
4.0
 40
4.0
 40
4.0
 40
4.0
 40
5.0
 40
5.0
 40
5.0
 40
5.0
 10
24.87473062664426
 20
72.00249219029647
 30
0.0
 10
24.87473062664426
 20
72.00249219029647
 30
0.0
 10
24.87473062664426
 20
70.14208781343015
 30
0.0
 10
24.87473062664426
 20
70.14208781343015
 30
0.0
  0
SPLINE
  5
1D60
102
{ACAD_REACTORS
330
1D85
102
}
330
A
100
AcDbEntity
  8
0
 62
   253
370
    13
100
AcDbSpline
210
0.0
220
0.0
230
1.0
 70
    24
 71
     3
 72
     8
 73
     4
 74
     0
 42
0.0000000001
 43
0.0000000001
 40
3.0
 40
3.0
 40
3.0
 40
3.0
 40
4.0
 40
4.0
 40
4.0
 40
4.0
 10
24.18573833723056
 20
72.00249219029647
 30
0.0
 10
24.18573833723056
 20
72.00249219029647
 30
0.0
 10
24.87473062664426
 20
72.00249219029647
 30
0.0
 10
24.87473062664426
 20
72.00249219029647
 30
0.0
  0
SPLINE
  5
1D61
102
{ACAD_REACTORS
330
1D85
102
}
330
A
100
AcDbEntity
  8
0
 62
   253
370
    13
100
AcDbSpline
210
0.0
220
0.0
230
1.0
 70
    24
 71
     3
 72
     8
 73
     4
 74
     0
 42
0.0000000001
 43
0.0000000001
 40
2.0
 40
2.0
 40
2.0
 40
2.0
 40
3.0
 40
3.0
 40
3.0
 40
3.0
 10
22.49518245327251
 20
72.00249219029647
 30
0.0
 10
22.49518245327251
 20
72.00249219029647
 30
0.0
 10
24.18573833723056
 20
72.00249219029647
 30
0.0
 10
24.18573833723056
 20
72.00249219029647
 30
0.0
  0
SPLINE
  5
1D62
102
{ACAD_REACTORS
330
1D85
102
}
330
A
100
AcDbEntity
  8
0
 62
   253
370
    13
100
AcDbSpline
210
0.0
220
0.0
230
1.0
 70
    24
 71
     3
 72
     8
 73
     4
 74
     0
 42
0.0000000001
 43
0.0000000001
 40
1.0
 40
1.0
 40
1.0
 40
1.0
 40
2.0
 40
2.0
 40
2.0
 40
2.0
 10
21.89966943268294
 20
72.00249219029647
 30
0.0
 10
21.89966943268294
 20
72.00249219029647
 30
0.0
 10
22.49518245327251
 20
72.00249219029647
 30
0.0
 10
22.49518245327251
 20
72.00249219029647
 30
0.0
  0
SPLINE
  5
1D63
102
{ACAD_REACTORS
330
1D85
102
}
330
A
100
AcDbEntity
  8
0
 62
   253
370
    13
100
AcDbSpline
210
0.0
220
0.0
230
1.0
 70
     8
 71
     3
 72
     8
 73
     4
 74
     0
 42
0.0000000001
 43
0.0000000001
 40
0.0
 40
0.0
 40
0.0
 40
0.0
 40
1.0
 40
1.0
 40
1.0
 40
1.0
 10
21.89966943268294
 20
70.14208781343015
 30
0.0
 10
21.55454731072953
 20
70.71214442599168
 30
0.0
 10
21.55454731072953
 20
71.43243557773487
 30
0.0
 10
21.89966943268294
 20
72.00249219029647
 30
0.0
  0
SPLINE
  5
1D95
102
{ACAD_REACTORS
330
1DF3
102
}
330
A
100
AcDbEntity
  8
0
 62
   253
370
    13
100
AcDbSpline
210
0.0
220
0.0
230
1.0
 70
     8
 71
     3
 72
     8
 73
     4
 74
     0
 42
0.0000000001
 43
0.0000000001
 40
15.0
 40
15.0
 40
15.0
 40
15.0
 40
16.0
 40
16.0
 40
16.0
 40
16.0
 10
85.4746989299249
 20
70.45628497026417
 30
0.0
 10
85.26437057507056
 20
70.24011416110835
 30
0.0
 10
84.97725567796786
 20
70.12243043874935
 30
0.0
 10
84.67887319042654
 20
70.12910752937961
 30
0.0
  0
SPLINE
  5
1D96
102
{ACAD_REACTORS
330
1DF3
102
}
330
A
100
AcDbEntity
  8
0
 62
   253
370
    13
100
AcDbSpline
210
0.0
220
0.0
230
1.0
 70
     8
 71
     3
 72
     8
 73
     4
 74
     0
 42
0.0000000001
 43
0.0000000001
 40
14.0
 40
14.0
 40
14.0
 40
14.0
 40
15.0
 40
15.0
 40
15.0
 40
15.0
 10
85.46760452113019
 20
72.02122808673983
 30
0.0
 10
85.89243441248283
 20
71.59139037741437
 30
0.0
 10
85.89493832146917
 20
70.89071317939778
 30
0.0
 10
85.4746989299249
 20
70.45628497026417
 30
0.0
  0
SPLINE
  5
1D97
102
{ACAD_REACTORS
330
1DF3
102
}
330
A
100
AcDbEntity
  8
0
 62
   253
370
    13
100
AcDbSpline
210
0.0
220
0.0
230
1.0
 70
    24
 71
     3
 72
     8
 73
     4
 74
     0
 42
0.0000000001
 43
0.0000000001
 40
13.0
 40
13.0
 40
13.0
 40
13.0
 40
14.0
 40
14.0
 40
14.0
 40
14.0
 10
85.23348903090544
 20
72.24699721367665
 30
0.0
 10
85.23348903090544
 20
72.24699721367665
 30
0.0
 10
85.46760452113019
 20
72.02122808673983
 30
0.0
 10
85.46760452113019
 20
72.02122808673983
 30
0.0
  0
SPLINE
  5
1D98
102
{ACAD_REACTORS
330
1DF3
102
}
330
A
100
AcDbEntity
  8
0
 62
   253
370
    13
100
AcDbSpline
210
0.0
220
0.0
230
1.0
 70
     8
 71
     3
 72
     8
 73
     4
 74
     0
 42
0.0000000001
 43
0.0000000001
 40
12.0
 40
12.0
 40
12.0
 40
12.0
 40
13.0
 40
13.0
 40
13.0
 40
13.0
 10
82.11653966105037
 20
77.63582667048996
 30
0.0
 10
82.79843754166938
 20
75.2262315892819
 30
0.0
 10
83.64308950640188
 20
73.85617605557815
 30
0.0
 10
85.23348903090544
 20
72.24699721367665
 30
0.0
  0
SPLINE
  5
1D99
102
{ACAD_REACTORS
330
1DF3
102
}
330
A
100
AcDbEntity
  8
0
 62
   253
370
    13
100
AcDbSpline
210
0.0
220
0.0
230
1.0
 70
    24
 71
     3
 72
     8
 73
     4
 74
     0
 42
0.0000000001
 43
0.0000000001
 40
11.0
 40
11.0
 40
11.0
 40
11.0
 40
12.0
 40
12.0
 40
12.0
 40
12.0
 10
81.99259616622558
 20
77.99972810984115
 30
0.0
 10
81.99259616622558
 20
77.99972810984115
 30
0.0
 10
82.11653966105037
 20
77.63582667048996
 30
0.0
 10
82.11653966105037
 20
77.63582667048996
 30
0.0
  0
SPLINE
  5
1D9A
102
{ACAD_REACTORS
330
1DF3
102
}
330
A
100
AcDbEntity
  8
0
 62
   253
370
    13
100
AcDbSpline
210
0.0
220
0.0
230
1.0
 70
     8
 71
     3
 72
     8
 73
     4
 74
     0
 42
0.0000000001
 43
0.0000000001
 40
10.0
 40
10.0
 40
10.0
 40
10.0
 40
11.0
 40
11.0
 40
11.0
 40
11.0
 10
81.08826770398483
 20
78.79012871320242
 30
0.0
 10
81.51727077698138
 20
78.73462539733805
 30
0.0
 10
81.87282585304464
 20
78.4245580011937
 30
0.0
 10
81.99259616622558
 20
77.99972810984115
 30
0.0
  0
SPLINE
  5
1D9B
102
{ACAD_REACTORS
330
1DF3
102
}
330
A
100
AcDbEntity
  8
0
 62
   253
370
    13
100
AcDbSpline
210
0.0
220
0.0
230
1.0
 70
     8
 71
     3
 72
     8
 73
     4
 74
     0
 42
0.0000000001
 43
0.0000000001
 40
9.0
 40
9.0
 40
9.0
 40
9.0
 40
10.0
 40
10.0
 40
10.0
 40
10.0
 10
76.86709447114458
 20
79.42612159573809
 30
0.0
 10
78.40658117959222
 20
79.14401451660814
 30
0.0
 10
81.08826770398483
 20
78.79012871320242
 30
0.0
 10
81.08826770398483
 20
78.79012871320242
 30
0.0
  0
SPLINE
  5
1D9C
102
{ACAD_REACTORS
330
1DF3
102
}
330
A
100
AcDbEntity
  8
0
 62
   253
370
    13
100
AcDbSpline
210
0.0
220
0.0
230
1.0
 70
    24
 71
     3
 72
     8
 73
     4
 74
     0
 42
0.0000000001
 43
0.0000000001
 40
8.0
 40
8.0
 40
8.0
 40
8.0
 40
9.0
 40
9.0
 40
9.0
 40
9.0
 10
76.4510282612442
 20
79.51584500108271
 30
0.0
 10
76.4510282612442
 20
79.51584500108271
 30
0.0
 10
76.86709447114458
 20
79.42612159573809
 30
0.0
 10
76.86709447114458
 20
79.42612159573809
 30
0.0
  0
SPLINE
  5
1D9D
102
{ACAD_REACTORS
330
1DF3
102
}
330
A
100
AcDbEntity
  8
0
 62
   253
370
    13
100
AcDbSpline
210
0.0
220
0.0
230
1.0
 70
     8
 71
     3
 72
    11
 73
     7
 74
     0
 42
0.0000000001
 43
0.0000000001
 40
6.0
 40
6.0
 40
6.0
 40
6.0
 40
7.0
 40
7.0
 40
7.0
 40
8.0
 40
8.0
 40
8.0
 40
8.0
 10
75.17486931452888
 20
78.4262272738514
 30
0.0
 10
75.17486931452888
 20
79.03801570285219
 30
0.0
 10
75.66062765788297
 20
79.53295504582285
 30
0.0
 10
76.25947922378762
 20
79.53295504582285
 30
0.0
 10
76.32374622110418
 20
79.53295504582285
 30
0.0
 10
76.38759590025642
 20
79.52711259152119
 30
0.0
 10
76.4510282612442
 20
79.51584500108271
 30
0.0
  0
SPLINE
  5
1D9E
102
{ACAD_REACTORS
330
1DF3
102
}
330
A
100
AcDbEntity
  8
0
 62
   253
370
    13
100
AcDbSpline
210
0.0
220
0.0
230
1.0
 70
    24
 71
     3
 72
     8
 73
     4
 74
     0
 42
0.0000000001
 43
0.0000000001
 40
5.0
 40
5.0
 40
5.0
 40
5.0
 40
6.0
 40
6.0
 40
6.0
 40
6.0
 10
75.17486931452888
 20
77.82528911712472
 30
0.0
 10
75.17486931452888
 20
77.82528911712472
 30
0.0
 10
75.17486931452888
 20
78.4262272738514
 30
0.0
 10
75.17486931452888
 20
78.4262272738514
 30
0.0
  0
SPLINE
  5
1D9F
102
{ACAD_REACTORS
330
1DF3
102
}
330
A
100
AcDbEntity
  8
0
 62
   253
370
    13
100
AcDbSpline
210
0.0
220
0.0
230
1.0
 70
    24
 71
     3
 72
     8
 73
     4
 74
     0
 42
0.0000000001
 43
0.0000000001
 40
4.0
 40
4.0
 40
4.0
 40
4.0
 40
5.0
 40
5.0
 40
5.0
 40
5.0
 10
75.17486931452888
 20
72.56916683658835
 30
0.0
 10
75.17486931452888
 20
72.56916683658835
 30
0.0
 10
75.17486931452888
 20
77.82528911712472
 30
0.0
 10
75.17486931452888
 20
77.82528911712472
 30
0.0
  0
SPLINE
  5
1DA0
102
{ACAD_REACTORS
330
1DF3
102
}
330
A
100
AcDbEntity
  8
0
 62
   253
370
    13
100
AcDbSpline
210
0.0
220
0.0
230
1.0
 70
    24
 71
     3
 72
     8
 73
     4
 74
     0
 42
0.0000000001
 43
0.0000000001
 40
3.0
 40
3.0
 40
3.0
 40
3.0
 40
4.0
 40
4.0
 40
4.0
 40
4.0
 10
75.17486931452888
 20
71.96822867986174
 30
0.0
 10
75.17486931452888
 20
71.96822867986174
 30
0.0
 10
75.17486931452888
 20
72.56916683658835
 30
0.0
 10
75.17486931452888
 20
72.56916683658835
 30
0.0
  0
SPLINE
  5
1DA1
102
{ACAD_REACTORS
330
1DF3
102
}
330
A
100
AcDbEntity
  8
0
 62
   253
370
    13
100
AcDbSpline
210
0.0
220
0.0
230
1.0
 70
     8
 71
     3
 72
     8
 73
     4
 74
     0
 42
0.0000000001
 43
0.0000000001
 40
2.0
 40
2.0
 40
2.0
 40
2.0
 40
3.0
 40
3.0
 40
3.0
 40
3.0
 10
76.10131563948249
 20
70.81350931898493
 30
0.0
 10
75.56965229804515
 20
70.89321708838411
 30
0.0
 10
75.17486931452888
 20
71.41987261184874
 30
0.0
 10
75.17486931452888
 20
71.96822867986174
 30
0.0
  0
SPLINE
  5
1DA2
102
{ACAD_REACTORS
330
1DF3
102
}
330
A
100
AcDbEntity
  8
0
 62
   253
370
    13
100
AcDbSpline
210
0.0
220
0.0
230
1.0
 70
    24
 71
     3
 72
     8
 73
     4
 74
     0
 42
0.0000000001
 43
0.0000000001
 40
1.0
 40
1.0
 40
1.0
 40
1.0
 40
2.0
 40
2.0
 40
2.0
 40
2.0
 10
76.44435117061391
 20
70.76760432090162
 30
0.0
 10
76.44435117061391
 20
70.76760432090162
 30
0.0
 10
76.10131563948249
 20
70.81350931898493
 30
0.0
 10
76.10131563948249
 20
70.81350931898493
 30
0.0
  0
SPLINE
  5
1DA3
102
{ACAD_REACTORS
330
1DF3
102
}
330
A
100
AcDbEntity
  8
0
 62
   253
370
    13
100
AcDbSpline
210
0.0
220
0.0
230
1.0
 70
     8
 71
     3
 72
     8
 73
     4
 74
     0
 42
0.0000000001
 43
0.0000000001
 40
0.0
 40
0.0
 40
0.0
 40
0.0
 40
1.0
 40
1.0
 40
1.0
 40
1.0
 10
84.67887319042654
 20
70.12910752937961
 30
0.0
 10
81.8073069012348
 20
70.19754770834015
 30
0.0
 10
79.28587055196931
 20
70.34027052056273
 30
0.0
 10
76.44435117061391
 20
70.76760432090162
 30
0.0
  0
SPLINE
  5
1DA4
102
{ACAD_REACTORS
330
1DF3
102
}
330
A
100
AcDbEntity
  8
0
 62
   253
370
    13
100
AcDbSpline
210
0.0
220
0.0
230
1.0
 70
    24
 71
     3
 72
     8
 73
     4
 74
     0
 42
0.0000000001
 43
0.0000000001
 40
44.0
 40
44.0
 40
44.0
 40
44.0
 40
45.0
 40
45.0
 40
45.0
 40
45.0
 10
74.09109404159895
 20
78.97082747838493
 30
0.0
 10
74.09109404159895
 20
78.97082747838493
 30
0.0
 10
74.09109404159895
 20
70.54976423908835
 30
0.0
 10
74.09109404159895
 20
70.54976423908835
 30
0.0
  0
SPLINE
  5
1DA5
102
{ACAD_REACTORS
330
1DF3
102
}
330
A
100
AcDbEntity
  8
0
 62
   253
370
    13
100
AcDbSpline
210
0.0
220
0.0
230
1.0
 70
    24
 71
     3
 72
     8
 73
     4
 74
     0
 42
0.0000000001
 43
0.0000000001
 40
43.0
 40
43.0
 40
43.0
 40
43.0
 40
44.0
 40
44.0
 40
44.0
 40
44.0
 10
74.09109404159895
 20
79.59555277048185
 30
0.0
 10
74.09109404159895
 20
79.59555277048185
 30
0.0
 10
74.09109404159895
 20
78.97082747838493
 30
0.0
 10
74.09109404159895
 20
78.97082747838493
 30
0.0
  0
SPLINE
  5
1DA6
102
{ACAD_REACTORS
330
1DF3
102
}
330
A
100
AcDbEntity
  8
0
 62
   253
370
    13
100
AcDbSpline
210
0.0
220
0.0
230
1.0
 70
     8
 71
     3
 72
     8
 73
     4
 74
     0
 42
0.0000000001
 43
0.0000000001
 40
42.0
 40
42.0
 40
42.0
 40
42.0
 40
43.0
 40
43.0
 40
43.0
 40
43.0
 10
65.07451778171293
 20
94.21629466000821
 30
0.0
 10
66.4324710886494
 20
91.61556785950779
 30
0.0
 10
74.09109404159895
 20
80.86795585371772
 30
0.0
 10
74.09109404159895
 20
79.59555277048185
 30
0.0
  0
SPLINE
  5
1DA7
102
{ACAD_REACTORS
330
1DF3
102
}
330
A
100
AcDbEntity
  8
0
 62
   253
370
    13
100
AcDbSpline
210
0.0
220
0.0
230
1.0
 70
    24
 71
     3
 72
     8
 73
     4
 74
     0
 42
0.0000000001
 43
0.0000000001
 40
41.0
 40
41.0
 40
41.0
 40
41.0
 40
42.0
 40
42.0
 40
42.0
 40
42.0
 10
64.94139328727141
 20
94.43413474182159
 30
0.0
 10
64.94139328727141
 20
94.43413474182159
 30
0.0
 10
65.07451778171293
 20
94.21629466000821
 30
0.0
 10
65.07451778171293
 20
94.21629466000821
 30
0.0
  0
SPLINE
  5
1DA8
102
{ACAD_REACTORS
330
1DF3
102
}
330
A
100
AcDbEntity
  8
0
 62
   253
370
    13
100
AcDbSpline
210
0.0
220
0.0
230
1.0
 70
     8
 71
     3
 72
     8
 73
     4
 74
     0
 42
0.0000000001
 43
0.0000000001
 40
40.0
 40
40.0
 40
40.0
 40
40.0
 40
41.0
 40
41.0
 40
41.0
 40
41.0
 10
65.09747028075463
 20
94.95786903813547
 30
0.0
 10
64.9121810157639
 20
94.85729536051662
 30
0.0
 10
64.84207156414578
 20
94.62317987029184
 30
0.0
 10
64.94139328727141
 20
94.43413474182159
 30
0.0
  0
SPLINE
  5
1DA9
102
{ACAD_REACTORS
330
1DF3
102
}
330
A
100
AcDbEntity
  8
0
 62
   253
370
    13
100
AcDbSpline
210
0.0
220
0.0
230
1.0
 70
     8
 71
     3
 72
     8
 73
     4
 74
     0
 42
0.0000000001
 43
0.0000000001
 40
39.0
 40
39.0
 40
39.0
 40
39.0
 40
40.0
 40
40.0
 40
40.0
 40
40.0
 10
65.60701575947902
 20
94.80596522629628
 30
0.0
 10
65.50602476369587
 20
94.98958521862943
 30
0.0
 10
65.27983831859458
 20
95.0571907612611
 30
0.0
 10
65.09747028075463
 20
94.95786903813547
 30
0.0
  0
SPLINE
  5
1DAA
102
{ACAD_REACTORS
330
1DF3
102
}
330
A
100
AcDbEntity
  8
0
 62
   253
370
    13
100
AcDbSpline
210
0.0
220
0.0
230
1.0
 70
    24
 71
     3
 72
     8
 73
     4
 74
     0
 42
0.0000000001
 43
0.0000000001
 40
38.0
 40
38.0
 40
38.0
 40
38.0
 40
39.0
 40
39.0
 40
39.0
 40
39.0
 10
65.76851788909937
 20
94.47085874028823
 30
0.0
 10
65.76851788909937
 20
94.47085874028823
 30
0.0
 10
65.60701575947902
 20
94.80596522629628
 30
0.0
 10
65.60701575947902
 20
94.80596522629628
 30
0.0
  0
SPLINE
  5
1DAB
102
{ACAD_REACTORS
330
1DF3
102
}
330
A
100
AcDbEntity
  8
0
 62
   253
370
    13
100
AcDbSpline
210
0.0
220
0.0
230
1.0
 70
     8
 71
     3
 72
     8
 73
     4
 74
     0
 42
0.0000000001
 43
0.0000000001
 40
37.0
 40
37.0
 40
37.0
 40
37.0
 40
38.0
 40
38.0
 40
38.0
 40
38.0
 10
73.60909156172446
 20
84.6192288334508
 30
0.0
 10
71.28629865871028
 20
86.75673247147438
 30
0.0
 10
67.72657471643367
 20
90.89569402592918
 30
0.0
 10
65.76851788909937
 20
94.47085874028823
 30
0.0
  0
SPLINE
  5
1DAC
102
{ACAD_REACTORS
330
1DF3
102
}
330
A
100
AcDbEntity
  8
0
 62
   253
370
    13
100
AcDbSpline
210
0.0
220
0.0
230
1.0
 70
     8
 71
     3
 72
     8
 73
     4
 74
     0
 42
0.0000000001
 43
0.0000000001
 40
36.0
 40
36.0
 40
36.0
 40
36.0
 40
37.0
 40
37.0
 40
37.0
 40
37.0
 10
82.27386860902678
 20
80.8646173084025
 30
0.0
 10
81.11998388447872
 20
81.06117416383176
 30
0.0
 10
75.93313641923192
 20
82.48255983175614
 30
0.0
 10
73.60909156172446
 20
84.6192288334508
 30
0.0
  0
SPLINE
  5
1DAD
102
{ACAD_REACTORS
330
1DF3
102
}
330
A
100
AcDbEntity
  8
0
 62
   253
370
    13
100
AcDbSpline
210
0.0
220
0.0
230
1.0
 70
     8
 71
     3
 72
     8
 73
     4
 74
     0
 42
0.0000000001
 43
0.0000000001
 40
35.0
 40
35.0
 40
35.0
 40
35.0
 40
36.0
 40
36.0
 40
36.0
 40
36.0
 10
95.32215565511842
 20
79.27087923858351
 30
0.0
 10
90.84433175117613
 20
79.60807231541378
 30
0.0
 10
86.69952774241986
 20
80.11094070350782
 30
0.0
 10
82.27386860902678
 20
80.8646173084025
 30
0.0
  0
SPLINE
  5
1DAE
102
{ACAD_REACTORS
330
1DF3
102
}
330
A
100
AcDbEntity
  8
0
 62
   253
370
    13
100
AcDbSpline
210
0.0
220
0.0
230
1.0
 70
    24
 71
     3
 72
     8
 73
     4
 74
     0
 42
0.0000000001
 43
0.0000000001
 40
34.0
 40
34.0
 40
34.0
 40
34.0
 40
35.0
 40
35.0
 40
35.0
 40
35.0
 10
95.63472696024916
 20
79.22539155866485
 30
0.0
 10
95.63472696024916
 20
79.22539155866485
 30
0.0
 10
95.32215565511842
 20
79.27087923858351
 30
0.0
 10
95.32215565511842
 20
79.27087923858351
 30
0.0
  0
SPLINE
  5
1DAF
102
{ACAD_REACTORS
330
1DF3
102
}
330
A
100
AcDbEntity
  8
0
 62
   253
370
    13
100
AcDbSpline
210
0.0
220
0.0
230
1.0
 70
     8
 71
     3
 72
     8
 73
     4
 74
     0
 42
0.0000000001
 43
0.0000000001
 40
33.0
 40
33.0
 40
33.0
 40
33.0
 40
34.0
 40
34.0
 40
34.0
 40
34.0
 10
95.90932231242005
 20
78.95288279731579
 30
0.0
 10
95.90765303976249
 20
79.1047866091551
 30
0.0
 10
95.78454418126638
 20
79.22706083132244
 30
0.0
 10
95.63472696024916
 20
79.22539155866485
 30
0.0
  0
SPLINE
  5
1DB0
102
{ACAD_REACTORS
330
1DF3
102
}
330
A
100
AcDbEntity
  8
0
 62
   253
370
    13
100
AcDbSpline
210
0.0
220
0.0
230
1.0
 70
     8
 71
     3
 72
     8
 73
     4
 74
     0
 42
0.0000000001
 43
0.0000000001
 40
32.0
 40
32.0
 40
32.0
 40
32.0
 40
33.0
 40
33.0
 40
33.0
 40
33.0
 10
95.63848282372871
 20
78.67661817248728
 30
0.0
 10
95.78704809025277
 20
78.67661817248728
 30
0.0
 10
95.88720444970727
 20
78.68162599046008
 30
0.0
 10
95.90932231242005
 20
78.95288279731579
 30
0.0
  0
SPLINE
  5
1DB1
102
{ACAD_REACTORS
330
1DF3
102
}
330
A
100
AcDbEntity
  8
0
 62
   253
370
    13
100
AcDbSpline
210
0.0
220
0.0
230
1.0
 70
    24
 71
     3
 72
     8
 73
     4
 74
     0
 42
0.0000000001
 43
0.0000000001
 40
31.0
 40
31.0
 40
31.0
 40
31.0
 40
32.0
 40
32.0
 40
32.0
 40
32.0
 10
95.16733061612843
 20
78.67661817248728
 30
0.0
 10
95.16733061612843
 20
78.67661817248728
 30
0.0
 10
95.63848282372871
 20
78.67661817248728
 30
0.0
 10
95.63848282372871
 20
78.67661817248728
 30
0.0
  0
SPLINE
  5
1DB2
102
{ACAD_REACTORS
330
1DF3
102
}
330
A
100
AcDbEntity
  8
0
 62
   253
370
    13
100
AcDbSpline
210
0.0
220
0.0
230
1.0
 70
    24
 71
     3
 72
     8
 73
     4
 74
     0
 42
0.0000000001
 43
0.0000000001
 40
30.0
 40
30.0
 40
30.0
 40
30.0
 40
31.0
 40
31.0
 40
31.0
 40
31.0
 10
85.78059314442539
 20
78.67661817248728
 30
0.0
 10
85.78059314442539
 20
78.67661817248728
 30
0.0
 10
95.16733061612843
 20
78.67661817248728
 30
0.0
 10
95.16733061612843
 20
78.67661817248728
 30
0.0
  0
SPLINE
  5
1DB3
102
{ACAD_REACTORS
330
1DF3
102
}
330
A
100
AcDbEntity
  8
0
 62
   253
370
    13
100
AcDbSpline
210
0.0
220
0.0
230
1.0
 70
    24
 71
     3
 72
     8
 73
     4
 74
     0
 42
0.0000000001
 43
0.0000000001
 40
29.0
 40
29.0
 40
29.0
 40
29.0
 40
30.0
 40
30.0
 40
30.0
 40
30.0
 10
85.19259185079489
 20
78.67661817248728
 30
0.0
 10
85.19259185079489
 20
78.67661817248728
 30
0.0
 10
85.78059314442539
 20
78.67661817248728
 30
0.0
 10
85.78059314442539
 20
78.67661817248728
 30
0.0
  0
SPLINE
  5
1DB4
102
{ACAD_REACTORS
330
1DF3
102
}
330
A
100
AcDbEntity
  8
0
 62
   253
370
    13
100
AcDbSpline
210
0.0
220
0.0
230
1.0
 70
     8
 71
     3
 72
     8
 73
     4
 74
     0
 42
0.0000000001
 43
0.0000000001
 40
28.0
 40
28.0
 40
28.0
 40
28.0
 40
29.0
 40
29.0
 40
29.0
 40
29.0
 10
84.78654127684
 20
78.59565844859503
 30
0.0
 10
84.91549258963763
 20
78.6494924918017
 30
0.0
 10
85.05320758388752
 20
78.67661817248728
 30
0.0
 10
85.19259185079489
 20
78.67661817248728
 30
0.0
  0
SPLINE
  5
1DB5
102
{ACAD_REACTORS
330
1DF3
102
}
330
A
100
AcDbEntity
  8
0
 62
   253
370
    13
100
AcDbSpline
210
0.0
220
0.0
230
1.0
 70
     8
 71
     3
 72
     8
 73
     4
 74
     0
 42
0.0000000001
 43
0.0000000001
 40
27.0
 40
27.0
 40
27.0
 40
27.0
 40
28.0
 40
28.0
 40
28.0
 40
28.0
 10
84.18727239277103
 20
77.15549346327287
 30
0.0
 10
83.96358985665603
 20
77.72179421235501
 30
0.0
 10
84.23109080003229
 20
78.36738541267175
 30
0.0
 10
84.78654127684
 20
78.59565844859503
 30
0.0
  0
SPLINE
  5
1DB6
102
{ACAD_REACTORS
330
1DF3
102
}
330
A
100
AcDbEntity
  8
0
 62
   253
370
    13
100
AcDbSpline
210
0.0
220
0.0
230
1.0
 70
    24
 71
     3
 72
     8
 73
     4
 74
     0
 42
0.0000000001
 43
0.0000000001
 40
26.0
 40
26.0
 40
26.0
 40
26.0
 40
27.0
 40
27.0
 40
27.0
 40
27.0
 10
84.30537343329437
 20
76.83123724953924
 30
0.0
 10
84.30537343329437
 20
76.83123724953924
 30
0.0
 10
84.18727239277103
 20
77.15549346327287
 30
0.0
 10
84.18727239277103
 20
77.15549346327287
 30
0.0
  0
SPLINE
  5
1DB7
102
{ACAD_REACTORS
330
1DF3
102
}
330
A
100
AcDbEntity
  8
0
 62
   253
370
    13
100
AcDbSpline
210
0.0
220
0.0
230
1.0
 70
     8
 71
     3
 72
     8
 73
     4
 74
     0
 42
0.0000000001
 43
0.0000000001
 40
25.0
 40
25.0
 40
25.0
 40
25.0
 40
26.0
 40
26.0
 40
26.0
 40
26.0
 10
86.93447786897342
 20
73.49978634318597
 30
0.0
 10
85.56692624425593
 20
74.45627957597583
 30
0.0
 10
84.92676018007623
 20
75.26128631509084
 30
0.0
 10
84.30537343329437
 20
76.83123724953924
 30
0.0
  0
SPLINE
  5
1DB8
102
{ACAD_REACTORS
330
1DF3
102
}
330
A
100
AcDbEntity
  8
0
 62
   253
370
    13
100
AcDbSpline
210
0.0
220
0.0
230
1.0
 70
    24
 71
     3
 72
     8
 73
     4
 74
     0
 42
0.0000000001
 43
0.0000000001
 40
24.0
 40
24.0
 40
24.0
 40
24.0
 40
25.0
 40
25.0
 40
25.0
 40
25.0
 10
87.23619890182988
 20
73.28194626137246
 30
0.0
 10
87.23619890182988
 20
73.28194626137246
 30
0.0
 10
86.93447786897342
 20
73.49978634318597
 30
0.0
 10
86.93447786897342
 20
73.49978634318597
 30
0.0
  0
SPLINE
  5
1DB9
102
{ACAD_REACTORS
330
1DF3
102
}
330
A
100
AcDbEntity
  8
0
 62
   253
370
    13
100
AcDbSpline
210
0.0
220
0.0
230
1.0
 70
     8
 71
     3
 72
     8
 73
     4
 74
     0
 42
0.0000000001
 43
0.0000000001
 40
23.0
 40
23.0
 40
23.0
 40
23.0
 40
24.0
 40
24.0
 40
24.0
 40
24.0
 10
87.84882196715955
 20
73.08789331492954
 30
0.0
 10
87.63014724901736
 20
73.08789331492954
 30
0.0
 10
87.41731498517671
 20
73.15549885756121
 30
0.0
 10
87.23619890182988
 20
73.28194626137246
 30
0.0
  0
SPLINE
  5
1DBA
102
{ACAD_REACTORS
330
1DF3
102
}
330
A
100
AcDbEntity
  8
0
 62
   253
370
    13
100
AcDbSpline
210
0.0
220
0.0
230
1.0
 70
    24
 71
     3
 72
     8
 73
     4
 74
     0
 42
0.0000000001
 43
0.0000000001
 40
22.0
 40
22.0
 40
22.0
 40
22.0
 40
23.0
 40
23.0
 40
23.0
 40
23.0
 10
88.20270777056526
 20
73.08789331492954
 30
0.0
 10
88.20270777056526
 20
73.08789331492954
 30
0.0
 10
87.84882196715955
 20
73.08789331492954
 30
0.0
 10
87.84882196715955
 20
73.08789331492954
 30
0.0
  0
SPLINE
  5
1DBB
102
{ACAD_REACTORS
330
1DF3
102
}
330
A
100
AcDbEntity
  8
0
 62
   253
370
    13
100
AcDbSpline
210
0.0
220
0.0
230
1.0
 70
    24
 71
     3
 72
     8
 73
     4
 74
     0
 42
0.0000000001
 43
0.0000000001
 40
21.0
 40
21.0
 40
21.0
 40
21.0
 40
22.0
 40
22.0
 40
22.0
 40
22.0
 10
90.99498360852217
 20
73.08789331492954
 30
0.0
 10
90.99498360852217
 20
73.08789331492954
 30
0.0
 10
88.20270777056526
 20
73.08789331492954
 30
0.0
 10
88.20270777056526
 20
73.08789331492954
 30
0.0
  0
SPLINE
  5
1DBC
102
{ACAD_REACTORS
330
1DF3
102
}
330
A
100
AcDbEntity
  8
0
 62
   253
370
    13
100
AcDbSpline
210
0.0
220
0.0
230
1.0
 70
    24
 71
     3
 72
     8
 73
     4
 74
     0
 42
0.0000000001
 43
0.0000000001
 40
20.0
 40
20.0
 40
20.0
 40
20.0
 40
21.0
 40
21.0
 40
21.0
 40
21.0
 10
90.99498360852217
 20
73.78022414965835
 30
0.0
 10
90.99498360852217
 20
73.78022414965835
 30
0.0
 10
90.99498360852217
 20
73.08789331492954
 30
0.0
 10
90.99498360852217
 20
73.08789331492954
 30
0.0
  0
SPLINE
  5
1DBD
102
{ACAD_REACTORS
330
1DF3
102
}
330
A
100
AcDbEntity
  8
0
 62
   253
370
    13
100
AcDbSpline
210
0.0
220
0.0
230
1.0
 70
     8
 71
     3
 72
     8
 73
     4
 74
     0
 42
0.0000000001
 43
0.0000000001
 40
19.0
 40
19.0
 40
19.0
 40
19.0
 40
20.0
 40
20.0
 40
20.0
 40
20.0
 10
92.78611317009907
 20
70.15039075576374
 30
0.0
 10
93.27354078611074
 20
71.65732664738868
 30
0.0
 10
92.47103795598205
 20
73.28278089770122
 30
0.0
 10
90.99498360852217
 20
73.78022414965835
 30
0.0
  0
SPLINE
  5
1DBE
102
{ACAD_REACTORS
330
1DF3
102
}
330
A
100
AcDbEntity
  8
0
 62
   253
370
    13
100
AcDbSpline
210
0.0
220
0.0
230
1.0
 70
     8
 71
     3
 72
     8
 73
     4
 74
     0
 42
0.0000000001
 43
0.0000000001
 40
18.0
 40
18.0
 40
18.0
 40
18.0
 40
19.0
 40
19.0
 40
19.0
 40
19.0
 10
90.99498360852217
 20
68.3217025593915
 30
0.0
 10
91.84172216407658
 20
68.6071481838365
 30
0.0
 10
92.50609268179104
 20
69.28570751914037
 30
0.0
 10
92.78611317009907
 20
70.15039075576374
 30
0.0
  0
SPLINE
  5
1DBF
102
{ACAD_REACTORS
330
1DF3
102
}
330
A
100
AcDbEntity
  8
0
 62
   253
370
    13
100
AcDbSpline
210
0.0
220
0.0
230
1.0
 70
    24
 71
     3
 72
     8
 73
     4
 74
     0
 42
0.0000000001
 43
0.0000000001
 40
17.0
 40
17.0
 40
17.0
 40
17.0
 40
18.0
 40
18.0
 40
18.0
 40
18.0
 10
90.99498360852217
 20
68.7419419509356
 30
0.0
 10
90.99498360852217
 20
68.7419419509356
 30
0.0
 10
90.99498360852217
 20
68.3217025593915
 30
0.0
 10
90.99498360852217
 20
68.3217025593915
 30
0.0
  0
SPLINE
  5
1DC0
102
{ACAD_REACTORS
330
1DF3
102
}
330
A
100
AcDbEntity
  8
0
 62
   253
370
    13
100
AcDbSpline
210
0.0
220
0.0
230
1.0
 70
    24
 71
     3
 72
     8
 73
     4
 74
     0
 42
0.0000000001
 43
0.0000000001
 40
16.0
 40
16.0
 40
16.0
 40
16.0
 40
17.0
 40
17.0
 40
17.0
 40
17.0
 10
90.99498360852217
 20
69.01403339412024
 30
0.0
 10
90.99498360852217
 20
69.01403339412024
 30
0.0
 10
90.99498360852217
 20
68.7419419509356
 30
0.0
 10
90.99498360852217
 20
68.7419419509356
 30
0.0
  0
SPLINE
  5
1DC1
102
{ACAD_REACTORS
330
1DF3
102
}
330
A
100
AcDbEntity
  8
0
 62
   253
370
    13
100
AcDbSpline
210
0.0
220
0.0
230
1.0
 70
    24
 71
     3
 72
     8
 73
     4
 74
     0
 42
0.0000000001
 43
0.0000000001
 40
15.0
 40
15.0
 40
15.0
 40
15.0
 40
16.0
 40
16.0
 40
16.0
 40
16.0
 10
89.81814638493252
 20
69.01403339412024
 30
0.0
 10
89.81814638493252
 20
69.01403339412024
 30
0.0
 10
90.99498360852217
 20
69.01403339412024
 30
0.0
 10
90.99498360852217
 20
69.01403339412024
 30
0.0
  0
SPLINE
  5
1DC2
102
{ACAD_REACTORS
330
1DF3
102
}
330
A
100
AcDbEntity
  8
0
 62
   253
370
    13
100
AcDbSpline
210
0.0
220
0.0
230
1.0
 70
    24
 71
     3
 72
     8
 73
     4
 74
     0
 42
0.0000000001
 43
0.0000000001
 40
14.0
 40
14.0
 40
14.0
 40
14.0
 40
15.0
 40
15.0
 40
15.0
 40
15.0
 10
89.04193459916061
 20
69.01403339412024
 30
0.0
 10
89.04193459916061
 20
69.01403339412024
 30
0.0
 10
89.81814638493252
 20
69.01403339412024
 30
0.0
 10
89.81814638493252
 20
69.01403339412024
 30
0.0
  0
SPLINE
  5
1DC3
102
{ACAD_REACTORS
330
1DF3
102
}
330
A
100
AcDbEntity
  8
0
 62
   253
370
    13
100
AcDbSpline
210
0.0
220
0.0
230
1.0
 70
    24
 71
     3
 72
     8
 73
     4
 74
     0
 42
0.0000000001
 43
0.0000000001
 40
13.0
 40
13.0
 40
13.0
 40
13.0
 40
14.0
 40
14.0
 40
14.0
 40
14.0
 10
88.45309866920132
 20
69.01403339412024
 30
0.0
 10
88.45309866920132
 20
69.01403339412024
 30
0.0
 10
89.04193459916061
 20
69.01403339412024
 30
0.0
 10
89.04193459916061
 20
69.01403339412024
 30
0.0
  0
SPLINE
  5
1DC4
102
{ACAD_REACTORS
330
1DF3
102
}
330
A
100
AcDbEntity
  8
0
 62
   253
370
    13
100
AcDbSpline
210
0.0
220
0.0
230
1.0
 70
    24
 71
     3
 72
     8
 73
     4
 74
     0
 42
0.0000000001
 43
0.0000000001
 40
12.0
 40
12.0
 40
12.0
 40
12.0
 40
13.0
 40
13.0
 40
13.0
 40
13.0
 10
88.45309866920132
 20
67.78920458162531
 30
0.0
 10
88.45309866920132
 20
67.78920458162531
 30
0.0
 10
88.45309866920132
 20
69.01403339412024
 30
0.0
 10
88.45309866920132
 20
69.01403339412024
 30
0.0
  0
SPLINE
  5
1DC5
102
{ACAD_REACTORS
330
1DF3
102
}
330
A
100
AcDbEntity
  8
0
 62
   253
370
    13
100
AcDbSpline
210
0.0
220
0.0
230
1.0
 70
    24
 71
     3
 72
     8
 73
     4
 74
     0
 42
0.0000000001
 43
0.0000000001
 40
11.0
 40
11.0
 40
11.0
 40
11.0
 40
12.0
 40
12.0
 40
12.0
 40
12.0
 10
88.45309866920132
 20
67.18826642489876
 30
0.0
 10
88.45309866920132
 20
67.18826642489876
 30
0.0
 10
88.45309866920132
 20
67.78920458162531
 30
0.0
 10
88.45309866920132
 20
67.78920458162531
 30
0.0
  0
SPLINE
  5
1DC6
102
{ACAD_REACTORS
330
1DF3
102
}
330
A
100
AcDbEntity
  8
0
 62
   253
370
    13
100
AcDbSpline
210
0.0
220
0.0
230
1.0
 70
     8
 71
     3
 72
     8
 73
     4
 74
     0
 42
0.0000000001
 43
0.0000000001
 40
10.0
 40
10.0
 40
10.0
 40
10.0
 40
11.0
 40
11.0
 40
11.0
 40
11.0
 10
88.07375645776764
 20
66.8009951683415
 30
0.0
 10
88.28366749445757
 20
66.8009951683415
 30
0.0
 10
88.45309866920132
 20
66.97459952472917
 30
0.0
 10
88.45309866920132
 20
67.18826642489876
 30
0.0
  0
SPLINE
  5
1DC7
102
{ACAD_REACTORS
330
1DF3
102
}
330
A
100
AcDbEntity
  8
0
 62
   253
370
    13
100
AcDbSpline
210
0.0
220
0.0
230
1.0
 70
    24
 71
     3
 72
     8
 73
     4
 74
     0
 42
0.0000000001
 43
0.0000000001
 40
9.0
 40
9.0
 40
9.0
 40
9.0
 40
10.0
 40
10.0
 40
10.0
 40
10.0
 10
87.96608837135414
 20
66.8009951683415
 30
0.0
 10
87.96608837135414
 20
66.8009951683415
 30
0.0
 10
88.07375645776764
 20
66.8009951683415
 30
0.0
 10
88.07375645776764
 20
66.8009951683415
 30
0.0
  0
SPLINE
  5
1DC8
102
{ACAD_REACTORS
330
1DF3
102
}
330
A
100
AcDbEntity
  8
0
 62
   253
370
    13
100
AcDbSpline
210
0.0
220
0.0
230
1.0
 70
     8
 71
     3
 72
     8
 73
     4
 74
     0
 42
0.0000000001
 43
0.0000000001
 40
8.0
 40
8.0
 40
8.0
 40
8.0
 40
9.0
 40
9.0
 40
9.0
 40
9.0
 10
87.58632884175609
 20
67.18826642489876
 30
0.0
 10
87.58632884175609
 20
66.97459952472917
 30
0.0
 10
87.7565946528286
 20
66.8009951683415
 30
0.0
 10
87.96608837135414
 20
66.8009951683415
 30
0.0
  0
SPLINE
  5
1DC9
102
{ACAD_REACTORS
330
1DF3
102
}
330
A
100
AcDbEntity
  8
0
 62
   253
370
    13
100
AcDbSpline
210
0.0
220
0.0
230
1.0
 70
    24
 71
     3
 72
     8
 73
     4
 74
     0
 42
0.0000000001
 43
0.0000000001
 40
7.0
 40
7.0
 40
7.0
 40
7.0
 40
8.0
 40
8.0
 40
8.0
 40
8.0
 10
87.58632884175609
 20
67.78920458162531
 30
0.0
 10
87.58632884175609
 20
67.78920458162531
 30
0.0
 10
87.58632884175609
 20
67.18826642489876
 30
0.0
 10
87.58632884175609
 20
67.18826642489876
 30
0.0
  0
SPLINE
  5
1DCA
102
{ACAD_REACTORS
330
1DF3
102
}
330
A
100
AcDbEntity
  8
0
 62
   253
370
    13
100
AcDbSpline
210
0.0
220
0.0
230
1.0
 70
    24
 71
     3
 72
     8
 73
     4
 74
     0
 42
0.0000000001
 43
0.0000000001
 40
6.0
 40
6.0
 40
6.0
 40
6.0
 40
7.0
 40
7.0
 40
7.0
 40
7.0
 10
87.58632884175609
 20
68.41309523739358
 30
0.0
 10
87.58632884175609
 20
68.41309523739358
 30
0.0
 10
87.58632884175609
 20
67.78920458162531
 30
0.0
 10
87.58632884175609
 20
67.78920458162531
 30
0.0
  0
SPLINE
  5
1DCB
102
{ACAD_REACTORS
330
1DF3
102
}
330
A
100
AcDbEntity
  8
0
 62
   253
370
    13
100
AcDbSpline
210
0.0
220
0.0
230
1.0
 70
    24
 71
     3
 72
     8
 73
     4
 74
     0
 42
0.0000000001
 43
0.0000000001
 40
5.0
 40
5.0
 40
5.0
 40
5.0
 40
6.0
 40
6.0
 40
6.0
 40
6.0
 10
87.58632884175609
 20
69.01403339412024
 30
0.0
 10
87.58632884175609
 20
69.01403339412024
 30
0.0
 10
87.58632884175609
 20
68.41309523739358
 30
0.0
 10
87.58632884175609
 20
68.41309523739358
 30
0.0
  0
SPLINE
  5
1DCC
102
{ACAD_REACTORS
330
1DF3
102
}
330
A
100
AcDbEntity
  8
0
 62
   253
370
    13
100
AcDbSpline
210
0.0
220
0.0
230
1.0
 70
    24
 71
     3
 72
     8
 73
     4
 74
     0
 42
0.0000000001
 43
0.0000000001
 40
4.0
 40
4.0
 40
4.0
 40
4.0
 40
5.0
 40
5.0
 40
5.0
 40
5.0
 10
86.87188014431439
 20
69.01403339412024
 30
0.0
 10
86.87188014431439
 20
69.01403339412024
 30
0.0
 10
87.58632884175609
 20
69.01403339412024
 30
0.0
 10
87.58632884175609
 20
69.01403339412024
 30
0.0
  0
SPLINE
  5
1DCD
102
{ACAD_REACTORS
330
1DF3
102
}
330
A
100
AcDbEntity
  8
0
 62
   253
370
    13
100
AcDbSpline
210
0.0
220
0.0
230
1.0
 70
    24
 71
     3
 72
     8
 73
     4
 74
     0
 42
0.0000000001
 43
0.0000000001
 40
3.0
 40
3.0
 40
3.0
 40
3.0
 40
4.0
 40
4.0
 40
4.0
 40
4.0
 10
86.28304421435514
 20
69.01403339412024
 30
0.0
 10
86.28304421435514
 20
69.01403339412024
 30
0.0
 10
86.87188014431439
 20
69.01403339412024
 30
0.0
 10
86.87188014431439
 20
69.01403339412024
 30
0.0
  0
SPLINE
  5
1DCE
102
{ACAD_REACTORS
330
1DF3
102
}
330
A
100
AcDbEntity
  8
0
 62
   253
370
    13
100
AcDbSpline
210
0.0
220
0.0
230
1.0
 70
     8
 71
     3
 72
     8
 73
     4
 74
     0
 42
0.0000000001
 43
0.0000000001
 40
2.0
 40
2.0
 40
2.0
 40
2.0
 40
3.0
 40
3.0
 40
3.0
 40
3.0
 10
74.93741527898899
 20
69.84533117759207
 30
0.0
 10
78.81597029886222
 20
69.17803943272684
 30
0.0
 10
82.3498205149464
 20
69.00526971266788
 30
0.0
 10
86.28304421435514
 20
69.01403339412024
 30
0.0
  0
SPLINE
  5
1DCF
102
{ACAD_REACTORS
330
1DF3
102
}
330
A
100
AcDbEntity
  8
0
 62
   253
370
    13
100
AcDbSpline
210
0.0
220
0.0
230
1.0
 70
    24
 71
     3
 72
     8
 73
     4
 74
     0
 42
0.0000000001
 43
0.0000000001
 40
1.0
 40
1.0
 40
1.0
 40
1.0
 40
2.0
 40
2.0
 40
2.0
 40
2.0
 10
74.53720715933565
 20
69.90250376611385
 30
0.0
 10
74.53720715933565
 20
69.90250376611385
 30
0.0
 10
74.93741527898899
 20
69.84533117759207
 30
0.0
 10
74.93741527898899
 20
69.84533117759207
 30
0.0
  0
SPLINE
  5
1DD0
102
{ACAD_REACTORS
330
1DF3
102
}
330
A
100
AcDbEntity
  8
0
 62
   253
370
    13
100
AcDbSpline
210
0.0
220
0.0
230
1.0
 70
     8
 71
     3
 72
     8
 73
     4
 74
     0
 42
0.0000000001
 43
0.0000000001
 40
0.0
 40
0.0
 40
0.0
 40
0.0
 40
1.0
 40
1.0
 40
1.0
 40
1.0
 10
74.09109404159895
 20
70.54976423908835
 30
0.0
 10
74.09109404159895
 20
70.27934206856122
 30
0.0
 10
74.27596598842533
 20
69.94715680970404
 30
0.0
 10
74.53720715933565
 20
69.90250376611385
 30
0.0
  0
SPLINE
  5
1DD1
102
{ACAD_REACTORS
330
1DF3
102
}
330
A
100
AcDbEntity
  8
0
 62
   253
370
    13
100
AcDbSpline
210
0.0
220
0.0
230
1.0
 70
    24
 71
     3
 72
     8
 73
     4
 74
     0
 42
0.0000000001
 43
0.0000000001
 40
7.0
 40
7.0
 40
7.0
 40
7.0
 40
8.0
 40
8.0
 40
8.0
 40
8.0
 10
90.80093066207917
 20
70.12076116609176
 30
0.0
 10
90.80093066207917
 20
70.12076116609176
 30
0.0
 10
91.5846541748102
 20
70.12076116609176
 30
0.0
 10
91.5846541748102
 20
70.12076116609176
 30
0.0
  0
SPLINE
  5
1DD2
102
{ACAD_REACTORS
330
1DF3
102
}
330
A
100
AcDbEntity
  8
0
 62
   253
370
    13
100
AcDbSpline
210
0.0
220
0.0
230
1.0
 70
    24
 71
     3
 72
     8
 73
     4
 74
     0
 42
0.0000000001
 43
0.0000000001
 40
6.0
 40
6.0
 40
6.0
 40
6.0
 40
7.0
 40
7.0
 40
7.0
 40
7.0
 10
89.43922149166324
 20
70.12076116609176
 30
0.0
 10
89.43922149166324
 20
70.12076116609176
 30
0.0
 10
90.80093066207917
 20
70.12076116609176
 30
0.0
 10
90.80093066207917
 20
70.12076116609176
 30
0.0
  0
SPLINE
  5
1DD3
102
{ACAD_REACTORS
330
1DF3
102
}
330
A
100
AcDbEntity
  8
0
 62
   253
370
    13
100
AcDbSpline
210
0.0
220
0.0
230
1.0
 70
    24
 71
     3
 72
     8
 73
     4
 74
     0
 42
0.0000000001
 43
0.0000000001
 40
5.0
 40
5.0
 40
5.0
 40
5.0
 40
6.0
 40
6.0
 40
6.0
 40
6.0
 10
88.60959298084893
 20
70.12076116609176
 30
0.0
 10
88.60959298084893
 20
70.12076116609176
 30
0.0
 10
89.43922149166324
 20
70.12076116609176
 30
0.0
 10
89.43922149166324
 20
70.12076116609176
 30
0.0
  0
SPLINE
  5
1DD4
102
{ACAD_REACTORS
330
1DF3
102
}
330
A
100
AcDbEntity
  8
0
 62
   253
370
    13
100
AcDbSpline
210
0.0
220
0.0
230
1.0
 70
    24
 71
     3
 72
     8
 73
     4
 74
     0
 42
0.0000000001
 43
0.0000000001
 40
4.0
 40
4.0
 40
4.0
 40
4.0
 40
5.0
 40
5.0
 40
5.0
 40
5.0
 10
88.60959298084893
 20
71.98116554295808
 30
0.0
 10
88.60959298084893
 20
71.98116554295808
 30
0.0
 10
88.60959298084893
 20
70.12076116609176
 30
0.0
 10
88.60959298084893
 20
70.12076116609176
 30
0.0
  0
SPLINE
  5
1DD5
102
{ACAD_REACTORS
330
1DF3
102
}
330
A
100
AcDbEntity
  8
0
 62
   253
370
    13
100
AcDbSpline
210
0.0
220
0.0
230
1.0
 70
    24
 71
     3
 72
     8
 73
     4
 74
     0
 42
0.0000000001
 43
0.0000000001
 40
3.0
 40
3.0
 40
3.0
 40
3.0
 40
4.0
 40
4.0
 40
4.0
 40
4.0
 10
89.2981679520982
 20
71.98116554295808
 30
0.0
 10
89.2981679520982
 20
71.98116554295808
 30
0.0
 10
88.60959298084893
 20
71.98116554295808
 30
0.0
 10
88.60959298084893
 20
71.98116554295808
 30
0.0
  0
SPLINE
  5
1DD6
102
{ACAD_REACTORS
330
1DF3
102
}
330
A
100
AcDbEntity
  8
0
 62
   253
370
    13
100
AcDbSpline
210
0.0
220
0.0
230
1.0
 70
    24
 71
     3
 72
     8
 73
     4
 74
     0
 42
0.0000000001
 43
0.0000000001
 40
2.0
 40
2.0
 40
2.0
 40
2.0
 40
3.0
 40
3.0
 40
3.0
 40
3.0
 10
90.98872383605623
 20
71.98116554295808
 30
0.0
 10
90.98872383605623
 20
71.98116554295808
 30
0.0
 10
89.2981679520982
 20
71.98116554295808
 30
0.0
 10
89.2981679520982
 20
71.98116554295808
 30
0.0
  0
SPLINE
  5
1DD7
102
{ACAD_REACTORS
330
1DF3
102
}
330
A
100
AcDbEntity
  8
0
 62
   253
370
    13
100
AcDbSpline
210
0.0
220
0.0
230
1.0
 70
    24
 71
     3
 72
     8
 73
     4
 74
     0
 42
0.0000000001
 43
0.0000000001
 40
1.0
 40
1.0
 40
1.0
 40
1.0
 40
2.0
 40
2.0
 40
2.0
 40
2.0
 10
91.5846541748102
 20
71.98116554295808
 30
0.0
 10
91.5846541748102
 20
71.98116554295808
 30
0.0
 10
90.98872383605623
 20
71.98116554295808
 30
0.0
 10
90.98872383605623
 20
71.98116554295808
 30
0.0
  0
SPLINE
  5
1DD8
102
{ACAD_REACTORS
330
1DF3
102
}
330
A
100
AcDbEntity
  8
0
 62
   253
370
    13
100
AcDbSpline
210
0.0
220
0.0
230
1.0
 70
     8
 71
     3
 72
     8
 73
     4
 74
     0
 42
0.0000000001
 43
0.0000000001
 40
0.0
 40
0.0
 40
0.0
 40
0.0
 40
1.0
 40
1.0
 40
1.0
 40
1.0
 10
91.5846541748102
 20
70.12076116609176
 30
0.0
 10
91.92977629676367
 20
70.6908177786533
 30
0.0
 10
91.92977629676367
 20
71.41110893039649
 30
0.0
 10
91.5846541748102
 20
71.98116554295808
 30
0.0
  0
ENDSEC
  0
SECTION
  2
OBJECTS
  0
DICTIONARY
  5
19
330
0
100
AcDbDictionary
281
     1
  3
ACAD_GROUP
350
1A
  3
ACAD_IMAGE_VARS
350
C31
  3
ACAD_LAYOUT
350
1E
  3
ACAD_MLINESTYLE
350
1B
  3
ACAD_PLOTSETTINGS
350
22
  3
ACAD_PLOTSTYLENAME
350
1F
  3
ACAD_WIPEOUT_VARS
350
23
  0
DICTIONARY
  5
C38
330
2
100
AcDbDictionary
280
     1
281
     1
  3
ACAD_LAYERFILTERS
360
C39
  0
DICTIONARY
  5
1A
102
{ACAD_REACTORS
330
19
102
}
330
19
100
AcDbDictionary
281
     1
  3
*A1
350
1BCA
  3
*A2
350
1C06
  3
*A3
350
1C31
  3
*A4
350
1C5C
  3
*A5
350
1C77
  3
*A6
350
1D19
  3
*A7
350
1D1D
  3
*A8
350
1D85
  3
*A9
350
1DF3
  0
RASTERVARIABLES
  5
C31
102
{ACAD_REACTORS
330
19
102
}
330
19
100
AcDbRasterVariables
 90
        0
 70
     1
 71
     1
 72
     0
  0
DICTIONARY
  5
1E
102
{ACAD_REACTORS
330
19
102
}
330
19
100
AcDbDictionary
281
     1
  3
Layout1
350
21
  3
Model
350
20
  0
DICTIONARY
  5
1B
102
{ACAD_REACTORS
330
19
102
}
330
19
100
AcDbDictionary
281
     1
  3
Standard
350
1C
  0
DICTIONARY
  5
22
102
{ACAD_REACTORS
330
19
102
}
330
19
100
AcDbDictionary
281
     1
  0
ACDBDICTIONARYWDFLT
  5
1F
102
{ACAD_REACTORS
330
19
102
}
330
19
100
AcDbDictionary
281
     1
  3
Normal
350
1D
100
AcDbDictionaryWithDefault
340
1D
  0
ACAD_PROXY_OBJECT
  5
23
330
19
100
AcDbProxyObject
 90
      499
 91
      521
 95
   393239
 70
     0
 93
       10
310
4040
 94
        0
  0
DICTIONARY
  5
C39
102
{ACAD_REACTORS
330
C38
102
}
330
C38
100
AcDbDictionary
280
     1
281
     1
  3
-100
360
C3A
  3
-50
360
C3B
  3
-ben
360
C3C
  3
-H
360
C3D
  3
-T
360
C3E
  3
$
360
C3F
  3
$0$
360
C40
  3
0
360
C41
  3
0-
360
C42
  3
00
360
C43
  3
01
360
C44
  3
01KUTAI
360
C45
  3
01全体計画平面図
360
C46
  3
02現況平面図
360
C47
  3
03撤去平面図
360
C48
  3
04造成平面図
360
C49
  3
05
360
C4A
  3
05施設平面図
360
C4B
  3
06
360
C4C
  3
06siki
360
C4D
  3
06siki2
360
C4E
  3
06排水平面図
360
C4F
  3
07
360
C50
  3
07給水平面図
360
C51
  3
0割付平面図
360
C52
  3
0潅水平面
360
C53
  3
0計画平面
360
C54
  3
0高木植栽
360
C55
  3
0施設平面
360
C56
  3
0床内
360
C57
  3
0床壁
360
C58
  3
0照明配置図
360
C59
  3
0詳細図
360
C5A
  3
0植栽基盤
360
C5B
  3
0全体工区区分図
360
C5C
  3
0総合図off
360
C5D
  3
0総合図枠
360
C5E
  3
0低木
360
C5F
  3
0排水平面
360
C60
  3
0平詳枠
360
C61
  3
0擁壁平面図
360
C62
  3
1
360
C63
  3
10
360
C64
  3
100
360
C65
  3
10植栽平面図
360
C66
  3
11
360
C67
  3
1111
360
C68
  3
11寸法図
360
C69
  3
12
360
C6A
  3
19
360
C6B
  3
１Ｆ床伏OFF
360
C6C
  3
1階
360
C6D
  3
1床
360
C6E
  3
1芯
360
C6F
  3
1芯線
360
C70
  3
20
360
C71
  3
21
360
C72
  3
250
360
C73
  3
2fmiage
360
C74
  3
2躯体
360
C75
  3
2断面
360
C76
  3
2壁
360
C77
  3
300
360
C78
  3
32
360
C79
  3
333
360
C7A
  3
37
360
C7B
  3
3D
360
C7C
  3
3開口
360
C7D
  3
3見掛り
360
C7E
  3
3天井内
360
C7F
  3
41
360
C80
  3
4仕上げ
360
C81
  3
4天井
360
C82
  3
5
360
C83
  3
50
360
C84
  3
50off
360
C85
  3
51-52
360
C86
  3
555
360
C87
  3
5寸法
360
C88
  3
5文字
360
C89
  3
6
360
C8A
  3
66-躯体図
360
C8B
  3
66躯体図
360
C8C
  3
6記号
360
C8D
  3
6文字
360
C8E
  3
6保留
360
C8F
  3
767
360
C90
  3
767SE13-0...$
360
C91
  3
767SE13-07-99$0$
360
C92
  3
7記号
360
C93
  3
8
360
C94
  3
8寸法
360
C95
  3
8設備
360
C96
  3
9文字
360
C97
  3
9目地
360
C98
  3
A
360
C99
  3
A-
360
C9A
  3
A(枠･表)を表示
360
C9B
  3
A01
360
C9C
  3
A1.DEMO-KEY NOTE
360
C9D
  3
A2. CONS-KEY NOTE
360
C9E
  3
A21
360
C9F
  3
A3
360
CA0
  3
A3. RCP-LAYER
360
CA1
  3
A3D. RCP_DEMO-KEY NOTE
360
CA2
  3
A4. P&T- KEY NOTE
360
CA3
  3
A4D. EL_DEMO-KEY NOTE
360
CA4
  3
A5. FINISH-KEY NOTE
360
CA5
  3
A6. FURN-KEY NOTE
360
CA6
  3
aa
360
CA7
  3
aaa
360
CA8
  3
AB棟
360
CA9
  3
ＡＢ棟
360
CAA
  3
ACTIVE
360
CAB
  3
ACTIVE2
360
CAC
  3
ALC
360
CAD
  3
ALL
360
CAE
  3
all選択
360
CAF
  3
AMENAGEMENT
360
CB0
  3
AQ
360
CB1
  3
ARBOL
360
CB2
  3
AREA
360
CB3
  3
AREA-SG
360
CB4
  3
AS1
360
CB5
  3
aハッチング
360
CB6
  3
A空調
360
CB7
  3
B
360
CB8
  3
B(基準)を表示
360
CB9
  3
B2
360
CBA
  3
B3
360
CBB
  3
BAL
360
CBC
  3
baru
360
CBD
  3
baru2
360
CBE
  3
BASE
360
CBF
  3
bb
360
CC0
  3
bbbb
360
CC1
  3
beam
360
CC2
  3
blocchi
360
CC3
  3
blue
360
CC4
  3
BSM
360
CC5
  3
b階段
360
CC6
  3
B電気
360
CC7
  3
c
360
CC8
  3
c-block
360
CC9
  3
c-block-2
360
CCA
  3
C(寸･文･記)を表示
360
CCB
  3
cajetin
360
CCC
  3
cc
360
CCD
  3
CD06
360
CCE
  3
ＣＤ棟
360
CCF
  3
ceiling
360
CD0
  3
CEILINGS XREF
360
CD1
  3
CEL
360
CD2
  3
che
360
CD3
  3
chika
360
CD4
  3
CLG
360
CD5
  3
COL
360
CD6
  3
cold beam
360
CD7
  3
colu
360
CD8
  3
com
360
CD9
  3
con
360
CDA
  3
CRG
360
CDB
  3
cyan
360
CDC
  3
C衛生
360
CDD
  3
C街区関連
360
CDE
  3
c雑金物
360
CDF
  3
C打計画図
360
CE0
  3
D
360
CE1
  3
D(表現補助)を表示
360
CE2
  3
Ｄ・墓地　施設平面
360
CE3
  3
D16
360
CE4
  3
DASHED
360
CE5
  3
DASHED2
360
CE6
  3
DEMO
360
CE7
  3
DEMOLITION
360
CE8
  3
detail
360
CE9
  3
details
360
CEA
  3
DHED
360
CEB
  3
Dim
360
CEC
  3
disegno
360
CED
  3
DOORS
360
CEE
  3
DR
360
CEF
  3
DT
360
CF0
  3
d外構
360
CF1
  3
Ｄ街区低木
360
CF2
  3
D割付平面
360
CF3
  3
Ｄ給水設備
360
CF4
  3
Ｄ計画高平面
360
CF5
  3
Ｄ計画平面
360
CF6
  3
Ｄ工事区分
360
CF7
  3
Ｄ高木植栽
360
CF8
  3
Ｄ施設平面
360
CF9
  3
Ｄ照明設備
360
CFA
  3
Ｄ低木
360
CFB
  3
Ｄ電気設備
360
CFC
  3
Ｄ土壌改良
360
CFD
  3
Ｄ排水平面
360
CFE
  3
D舗装平面
360
CFF
  3
Ｄ墓地施設平面
360
D00
  3
D墓地排水
360
D01
  3
E
360
D02
  3
E(点線系)を表示
360
D03
  3
EEEE
360
D04
  3
EISEI
360
D05
  3
elec
360
D06
  3
ERAS1F
360
D07
  3
existing
360
D08
  3
Exit
360
D09
  3
F
360
D0A
  3
F(断面)を表示
360
D0B
  3
F1
360
D0C
  3
face4
360
D0D
  3
FC_CLADDING
360
D0E
  3
FENCE
360
D0F
  3
FF
360
D10
  3
FH
360
D11
  3
FILTER1
360
D12
  3
fini
360
D13
  3
finish
360
D14
  3
FIRE
360
D15
  3
fixture
360
D16
  3
fl
360
D17
  3
Floor
360
D18
  3
FLOOR PLAN
360
D19
  3
fr
360
D1A
  3
freeze
360
D1B
  3
FRZ
360
D1C
  3
Fugou
360
D1D
  3
FUGOU-TATEGU
360
D1E
  3
FUKI
360
D1F
  3
FURN
360
D20
  3
FURNITURE
360
D21
  3
FUSE_00
360
D22
  3
G
360
D23
  3
G(開口)を表示
360
D24
  3
GAIKOU
360
D25
  3
gel
360
D26
  3
gen
360
D27
  3
gondora
360
D28
  3
green
360
D29
  3
GRID
360
D2A
  3
gris
360
D2B
  3
H
360
D2C
  3
H-
360
D2D
  3
H-SIN
360
D2E
  3
H(見掛)を表示
360
D2F
  3
HA
360
D30
  3
haikin
360
D31
  3
HAISEN
360
D32
  3
HARI
360
D33
  3
hasira
360
D34
  3
HATCH
360
D35
  3
HCP
360
D36
  3
HEISHO
360
D37
  3
HEISHO2
360
D38
  3
HIDDEN
360
D39
  3
HOJO
360
D3A
  3
hollywood
360
D3B
  3
HOTEL
360
D3C
  3
huse
360
D3D
  3
HYOKI
360
D3E
  3
HYOUKI
360
D3F
  3
i
360
D40
  3
I(二次部材系))を表示
360
D41
  3
I2
360
D42
  3
i2cl
360
D43
  3
i5
360
D44
  3
i9
360
D45
  3
in
360
D46
  3
INSERT図
360
D47
  3
ISSUE
360
D48
  3
J
360
D49
  3
K
360
D4A
  3
KABE
360
D4B
  3
KABESHIN
360
D4C
  3
KAGU
360
D4D
  3
key
360
D4E
  3
KI
360
D4F
  3
KIGO
360
D50
  3
KIJUN
360
D51
  3
kiso
360
D52
  3
KSIN
360
D53
  3
kui
360
D54
  3
KUTAI
360
D55
  3
L
360
D56
  3
LEGEND
360
D57
  3
LGS
360
D58
  3
light
360
D59
  3
LIST
360
D5A
  3
lixo
360
D5B
  3
LOCK
360
D5C
  3
LTA
360
D5D
  3
Ｌ建具
360
D5E
  3
M
360
D5F
  3
MA
360
D60
  3
MACONNERIE
360
D61
  3
magenta
360
D62
  3
magenta-bleu
360
D63
  3
maji
360
D64
  3
MAJIKIRI
360
D65
  3
marco
360
D66
  3
MB
360
D67
  3
meji
360
D68
  3
merceologico
360
D69
  3
MILL
360
D6A
  3
MILLWORK
360
D6B
  3
miwa
360
D6C
  3
MOJI
360
D6D
  3
MOJI100
360
D6E
  3
N
360
D6F
  3
N-
360
D70
  3
NAM
360
D71
  3
NEW
360
D72
  3
NHK
360
D73
  3
no xref
360
D74
  3
note
360
D75
  3
NUM
360
D76
  3
NUMB
360
D77
  3
O
360
D78
  3
OF
360
D79
  3
OFF
360
D7A
  3
on
360
D7B
  3
option 1
360
D7C
  3
option 2
360
D7D
  3
OUTLINE
360
D7E
  3
P
360
D7F
  3
pa
360
D80
  3
PALFOND
360
D81
  3
PAT
360
D82
  3
PC
360
D83
  3
PISO
360
D84
  3
PLAN
360
D85
  3
PLMB
360
D86
  3
plot
360
D87
  3
PLUMB
360
D88
  3
PNL
360
D89
  3
power
360
D8A
  3
PRT
360
D8B
  3
q
360
D8C
  3
R
360
D8D
  3
rack
360
D8E
  3
RC
360
D8F
  3
RCP
360
D90
  3
rm
360
D91
  3
RMTAGS
360
D92
  3
RNUM
360
D93
  3
ROOM
360
D94
  3
roomno
360
D95
  3
rouge
360
D96
  3
rtkl
360
D97
  3
S
360
D98
  3
saciencewold
360
D99
  3
SETUBI
360
D9A
  3
SHITU
360
D9B
  3
SHITUMEI
360
D9C
  3
SIAG
360
D9D
  3
SIAG-N
360
D9E
  3
SIAG3
360
D9F
  3
sin
360
DA0
  3
Sinm
360
DA1
  3
SITA
360
DA2
  3
siyah
360
DA3
  3
SS
360
DA4
  3
ST
360
DA5
  3
STA
360
DA6
  3
stairs
360
DA7
  3
SUGA5
360
DA8
  3
SUNP
360
DA9
  3
SUNP100
360
DAA
  3
T
360
DAB
  3
TAKASA
360
DAC
  3
TATE161
360
DAD
  3
TATEGU
360
DAE
  3
ten
360
DAF
  3
TENJYOU
360
DB0
  3
TENJYOUNAI
360
DB1
  3
test
360
DB2
  3
text
360
DB3
  3
thaw
360
DB4
  3
TITL
360
DB5
  3
tnjyou
360
DB6
  3
tori
360
DB7
  3
TORISHIN
360
DB8
  3
tr
360
DB9
  3
TSIN
360
DBA
  3
TXT
360
DBB
  3
UNFREEZ
360
DBC
  3
UNROCK
360
DBD
  3
wada
360
DBE
  3
waku
360
DBF
  3
X
360
DC0
  3
X(敷地)を表示
360
DC1
  3
xref
360
DC2
  3
YAJI
360
DC3
  3
yellow
360
DC4
  3
YUKA
360
DC5
  3
yその他
360
DC6
  3
Z
360
DC7
  3
ZATU
360
DC8
  3
z図枠
360
DC9
  3
к
360
DCA
  3
перегородки
360
DCB
  3
イベント給水
360
DCC
  3
ガラス
360
DCD
  3
キ-プラン
360
DCE
  3
キープラン
360
DCF
  3
さーくる
360
DD0
  3
シェルター
360
DD1
  3
すべてに反映
360
DD2
  3
スロープ
360
DD3
  3
タイル割付平面図
360
DD4
  3
ﾃｷｽﾄのみ表示
360
DD5
  3
ハッチング
360
DD6
  3
フリーズ
360
DD7
  3
フリーズof
360
DD8
  3
ﾌﾘｰｽﾞ画層非表示
360
DD9
  3
ﾌﾘｰｽﾞ画面非表示
360
DDA
  3
ﾌﾘｰｽﾞ解除
360
DDB
  3
フリーズ解除
360
DDC
  3
ﾌﾟﾚｾﾞﾝ枠
360
DDD
  3
マーク
360
DDE
  3
ﾒｲﾝﾌﾟﾗｻﾞ
360
DDF
  3
レベル
360
DE0
  3
ロック
360
DE1
  3
一括非表示
360
DE2
  3
一般図
360
DE3
  3
印刷
360
DE4
  3
荏原機器
360
DE5
  3
荏原機器基礎
360
DE6
  3
衛生設備図
360
DE7
  3
黄色
360
DE8
  3
下階
360
DE9
  3
下地
360
DEA
  3
外構
360
DEB
  3
外部参照－建築
360
DEC
  3
外部参照除く
360
DED
  3
割り付け平面図
360
DEE
  3
割付平面図
360
DEF
  3
潅水平面
360
DF0
  3
基
360
DF1
  3
基準
360
DF2
  3
基準階
360
DF3
  3
基礎OFF
360
DF4
  3
基礎伏
360
DF5
  3
基礎伏図
360
DF6
  3
基盤改良平面図
360
DF7
  3
既存杭
360
DF8
  3
機器
360
DF9
  3
機器基礎
360
DFA
  3
記号
360
DFB
  3
給水設備平面図
360
DFC
  3
給水平面
360
DFD
  3
区画
360
DFE
  3
躯体
360
DFF
  3
躯体図
360
E00
  3
空調jv
360
E01
  3
空調設備図
360
E02
  3
郡川
360
E03
  3
型枠計画図
360
E04
  3
計画高平面図
360
E05
  3
計画平面
360
E06
  3
計画平面図
360
E07
  3
劇場ﾌﾟﾗｻﾞ
360
E08
  3
劇場棟
360
E09
  3
建具
360
E0A
  3
建築接地図
360
E0B
  3
見上げ
360
E0C
  3
現在非表示画層
360
E0D
  3
光天井
360
E0E
  3
公園
360
E0F
  3
工事区分図
360
E10
  3
工事区分図AB
360
E11
  3
工事区分図CD
360
E12
  3
高さ
360
E13
  3
高木植栽平面
360
E14
  3
高木平面図
360
E15
  3
座席のみ
360
E16
  3
作業
360
E17
  3
参考
360
E18
  3
山止根切計画図
360
E19
  3
仕
360
E1A
  3
仕上
360
E1B
  3
仕上図
360
E1C
  3
使用中
360
E1D
  3
施設配置図
360
E1E
  3
施設平面
360
E1F
  3
施設平面図
360
E20
  3
紫
360
E21
  3
床伏図
360
E22
  3
昇降機
360
E23
  3
照明
360
E24
  3
照明Ｃ１
360
E25
  3
照明Ｃ２
360
E26
  3
照明配置図
360
E27
  3
詳細
360
E28
  3
詳細図
360
E29
  3
上階躯体図
360
E2A
  3
植栽
360
E2B
  3
植栽基盤平面
360
E2C
  3
植栽現況
360
E2D
  3
植栽高木AB
360
E2E
  3
植栽高木CD
360
E2F
  3
植栽低木AB
360
E30
  3
植栽低木ＣＤ
360
E31
  3
色番号8
360
E32
  3
申請用
360
E33
  3
芯
360
E34
  3
芯関係
360
E35
  3
水
360
E36
  3
水色
360
E37
  3
寸法
360
E38
  3
製作
360
E39
  3
製作-躯体
360
E3A
  3
製作-建築
360
E3B
  3
製作-昇降機
360
E3C
  3
青
360
E3D
  3
設備
360
E3E
  3
設備プロット
360
E3F
  3
全階平面図
360
E40
  3
総合仮設図
360
E41
  3
総合図
360
E42
  3
足場計画図
360
E43
  3
地下埋設
360
E44
  3
中野
360
E45
  3
低木植栽平面
360
E46
  3
低木平面図
360
E47
  3
鉄骨
360
E48
  3
鉄骨建方計画図
360
E49
  3
天井インサート図
360
E4A
  3
天井総合図
360
E4B
  3
天井伏図
360
E4C
  3
天伏
360
E4D
  3
電気設備図
360
E4E
  3
土壌改良
360
E4F
  3
土木計画平面図
360
E50
  3
道路
360
E51
  3
道路関係図
360
E52
  3
排水
360
E53
  3
排水設備平面図
360
E54
  3
排水平面
360
E55
  3
配管
360
E56
  3
非表示
360
E57
  3
非表示ﾚｲﾔｰ
360
E58
  3
表示
360
E59
  3
表示・非表示
360
E5A
  3
表示2
360
E5B
  3
分割枠
360
E5C
  3
平面詳細図
360
E5D
  3
平面図
360
E5E
  3
平面総合図
360
E5F
  3
変更分
360
E60
  3
舗装平面
360
E61
  3
舗装平面C1
360
E62
  3
舗装平面C2
360
E63
  3
舗装平面図
360
E64
  3
法規チェック－区画
360
E65
  3
法規チェック－範囲
360
E66
  3
鳳文字入力
360
E67
  3
防災
360
E68
  3
名称
360
E69
  3
面積
360
E6A
  3
擁壁平面図
360
E6B
  3
用途色塗
360
E6C
  3
立面図
360
E6D
  3
梁
360
E6E
  3
緑
360
E6F
  0
GROUP
  5
1BCA
102
{ACAD_REACTORS
330
1A
102
}
330
1A
100
AcDbGroup
300

 70
     1
 71
     1
340
1BBE
340
1BC1
340
1BC0
340
1BBF
340
1BB7
340
1BB6
340
1BC5
340
1BC6
340
1BC9
  0
GROUP
  5
1C06
102
{ACAD_REACTORS
330
1A
102
}
330
1A
100
AcDbGroup
300

 70
     1
 71
     1
  0
GROUP
  5
1C31
102
{ACAD_REACTORS
330
1A
102
}
330
1A
100
AcDbGroup
300

 70
     1
 71
     1
340
1C09
340
1C0A
340
1C0B
340
1C0C
340
1C0D
340
1C0E
340
1C0F
340
1C10
340
1C11
340
1C12
340
1C13
340
1C14
340
1C15
340
1C16
340
1C17
340
1C18
340
1C19
340
1C1A
340
1C1B
340
1C1C
340
1C1D
340
1C1E
340
1C1F
340
1C08
340
1C20
340
1C07
340
1C21
340
1C22
340
1C23
340
1C24
340
1C25
340
1C26
340
1C27
340
1C28
340
1C29
340
1C2A
340
1C2B
340
1C2C
340
1C2D
340
1C2E
340
1C2F
340
1C30
  0
GROUP
  5
1C5C
102
{ACAD_REACTORS
330
1A
102
}
330
1A
100
AcDbGroup
300

 70
     1
 71
     1
340
1C33
340
1C34
340
1C35
340
1C36
340
1C37
340
1C38
340
1C39
340
1C3A
340
1C3B
340
1C3C
340
1C3D
340
1C3E
340
1C3F
340
1C40
340
1C41
340
1C42
340
1C43
340
1C44
340
1C45
340
1C46
340
1C47
340
1C48
340
1C49
340
1C4A
340
1C4B
340
1C4C
340
1C4D
340
1C4E
340
1C4F
340
1C50
340
1C51
340
1C52
340
1C53
340
1C54
340
1C55
340
1C56
340
1C57
340
1C58
340
1C32
340
1C59
340
1C5A
340
1C5B
  0
GROUP
  5
1C77
102
{ACAD_REACTORS
330
1A
102
}
330
1A
100
AcDbGroup
300

 70
     1
 71
     1
340
1C5D
340
1C5E
340
1C5F
  0
GROUP
  5
1D19
102
{ACAD_REACTORS
330
1A
102
}
330
1A
100
AcDbGroup
300

 70
     1
 71
     1
340
1D16
340
1D15
340
1D12
340
1C95
340
1C94
340
1C79
340
1C78
340
1CA1
340
1CC5
340
1CB2
340
1CA6
340
1CC4
340
1CC3
340
1CC2
340
1CB6
340
1CBA
340
1CC7
340
1CC6
340
1CAA
340
1CC1
  0
GROUP
  5
1D1D
102
{ACAD_REACTORS
330
1A
102
}
330
1A
100
AcDbGroup
300

 70
     1
 71
     1
340
1CE8
340
1CDB
340
1CDC
340
1CDF
340
1CE4
340
1CE5
340
1D11
340
1D10
340
1D1C
340
1CFB
340
1CEA
340
1CED
340
1CFC
340
1CFD
340
1CF3
340
1CF7
340
1CF8
340
1CFA
340
1CF5
340
1CF4
  0
GROUP
  5
1D85
102
{ACAD_REACTORS
330
1A
102
}
330
1A
100
AcDbGroup
300

 70
     1
 71
     1
340
1D4C
340
1D63
340
1D62
340
1D61
340
1D60
340
1D5F
340
1D5E
340
1D5D
340
1D5C
340
1D5B
340
1D5A
340
1D59
340
1D58
340
1D57
340
1D56
340
1D55
340
1D54
340
1D53
340
1D52
340
1D51
340
1D50
340
1D4F
340
1D4B
340
1D4A
340
1D49
340
1D48
340
1D47
340
1D46
340
1D45
340
1D44
340
1D43
340
1D42
340
1D41
340
1D40
340
1D3F
340
1D3E
340
1D3D
340
1D3C
340
1D3B
340
1D3A
340
1D39
340
1D38
340
1D37
340
1D36
340
1D35
340
1D34
340
1D33
340
1D32
340
1D31
340
1D30
340
1D2F
340
1D2E
340
1D2D
340
1D2C
340
1D2B
340
1D2A
340
1D29
340
1D28
340
1D27
340
1D26
340
1D25
340
1D24
340
1D23
340
1D22
340
1D21
340
1D20
  0
GROUP
  5
1DF3
102
{ACAD_REACTORS
330
1A
102
}
330
1A
100
AcDbGroup
300

 70
     1
 71
     1
340
1DD8
340
1DD7
340
1DD6
340
1DD5
340
1DD4
340
1DD3
340
1DD2
340
1DD1
340
1DD0
340
1DCF
340
1DCE
340
1DCD
340
1DCC
340
1DCB
340
1DCA
340
1DC9
340
1DC8
340
1DC7
340
1DC6
340
1DC5
340
1DC4
340
1DC3
340
1DC2
340
1DC1
340
1DC0
340
1DBF
340
1DBE
340
1DBD
340
1DBC
340
1DBB
340
1DBA
340
1DB9
340
1DB8
340
1DB7
340
1DB6
340
1DB5
340
1DB4
340
1DB3
340
1DB2
340
1DB1
340
1DB0
340
1DAF
340
1DAE
340
1DAD
340
1DAC
340
1DAB
340
1DAA
340
1DA9
340
1DA8
340
1DA7
340
1DA6
340
1DA5
340
1DA4
340
1DA3
340
1DA2
340
1DA1
340
1DA0
340
1D9F
340
1D9E
340
1D9D
340
1D9C
340
1D9B
340
1D9A
340
1D99
340
1D98
340
1D97
340
1D96
340
1D95
  0
LAYOUT
  5
21
102
{ACAD_REACTORS
330
1E
102
}
330
1E
100
AcDbPlotSettings
  1

  2

  4

  6

 40
0.0
 41
0.0
 42
0.0
 43
0.0
 44
0.0
 45
0.0
 46
0.0
 47
0.0
 48
0.0
 49
0.0
140
0.0
141
0.0
142
1.0
143
1.0
 70
     0
 72
     0
 73
     0
 74
     0
  7

 75
     0
147
1.0
148
0.0
149
0.0
100
AcDbLayout
  1
Layout1
 70
     0
 71
     1
 10
0.0
 20
0.0
 11
12.0
 21
9.0
 12
0.0
 22
0.0
 32
0.0
 14
1.000000000000000E+20
 24
1.000000000000000E+20
 34
1.000000000000000E+20
 15
-1.000000000000000E+20
 25
-1.000000000000000E+20
 35
-1.000000000000000E+20
146
0.0
 13
0.0
 23
0.0
 33
0.0
 16
1.0
 26
0.0
 36
0.0
 17
0.0
 27
1.0
 37
0.0
 76
     0
330
B
  0
LAYOUT
  5
20
102
{ACAD_REACTORS
330
1E
102
}
330
1E
100
AcDbPlotSettings
  1

  2
C:\Program Files\ACAD LT 2000\plotters\DWF Classic.pc3
  4
ANSI_A_(8.50_x_11.00_Inches)
  6

 40
5.793749809265136
 41
17.79375076293945
 42
5.793746948242187
 43
17.79376220703125
 44
215.8999938964843
 45
279.3999938964843
 46
0.0
 47
0.0
 48
0.0
 49
0.0
140
0.0
141
0.0
142
1.0
143
1.0
 70
 11264
 72
     1
 73
     1
 74
     0
  7

 75
     0
147
1.0
148
-14.68904215586468
149
157.79064358766
100
AcDbLayout
  1
Model
 70
     0
 71
     0
 10
0.0
 20
0.0
 11
0.0
 21
0.0
 12
0.0
 22
0.0
 32
0.0
 14
0.0
 24
0.0
 34
0.0
 15
0.0
 25
0.0
 35
0.0
146
0.0
 13
0.0
 23
0.0
 33
0.0
 16
0.0
 26
0.0
 36
0.0
 17
0.0
 27
0.0
 37
0.0
 76
     0
330
A
  0
MLINESTYLE
  5
1C
102
{ACAD_REACTORS
330
1B
102
}
330
1B
100
AcDbMlineStyle
  2
STANDARD
 70
     0
  3

 62
     0
 51
90.0
 52
90.0
 71
     2
 49
0.5
 62
   256
  6
BYLAYER
 49
-0.5
 62
   256
  6
BYLAYER
  0
ACDBPLACEHOLDER
  5
1D
102
{ACAD_REACTORS
330
1F
102
}
330
1F
  0
XRECORD
  5
C3A
102
{ACAD_REACTORS
330
C39
102
}
330
C39
100
AcDbXrecord
280
     1
  1
-100
  1
*-100
  1
*
  1
*
 70
     0
  1
*
  1
*
  0
XRECORD
  5
C3B
102
{ACAD_REACTORS
330
C39
102
}
330
C39
100
AcDbXrecord
280
     1
  1
-50
  1
*-50
  1
*
  1
*
 70
     0
  1
*
  1
*
  0
XRECORD
  5
C3C
102
{ACAD_REACTORS
330
C39
102
}
330
C39
100
AcDbXrecord
280
     1
  1
-ben
  1
ben*
  1
*
  1
*
 70
     0
  1
*
  1
*
  0
XRECORD
  5
C3D
102
{ACAD_REACTORS
330
C39
102
}
330
C39
100
AcDbXrecord
280
     1
  1
-H
  1
00*,01*,02*,05*,1*,2*,3*,4*,5*,6*,8*
  1
*
  1
*
 70
     0
  1
*
  1
*
  0
XRECORD
  5
C3E
102
{ACAD_REACTORS
330
C39
102
}
330
C39
100
AcDbXrecord
280
     1
  1
-T
  1
00*,01*,03*,05*,1*,20*,21*,22*,23*,24*,25*,26*,27*,29*,2a*,3*,4*,7*,9*
  1
*
  1
*
 70
     0
  1
*
  1
*
  0
XRECORD
  5
C3F
102
{ACAD_REACTORS
330
C39
102
}
330
C39
100
AcDbXrecord
280
     1
  1
$
  1
*$0$*
  1
*
  1
*
 70
     0
  1
*
  1
*
  0
XRECORD
  5
C40
102
{ACAD_REACTORS
330
C39
102
}
330
C39
100
AcDbXrecord
280
     1
  1
$0$
  1
$0$*
  1
*
  1
*
 70
     0
  1
*
  1
*
  0
XRECORD
  5
C41
102
{ACAD_REACTORS
330
C39
102
}
330
C39
100
AcDbXrecord
280
     1
  1
0
  1
0*
  1
*
  1
*
 70
     0
  1
*
  1
*
  0
XRECORD
  5
C42
102
{ACAD_REACTORS
330
C39
102
}
330
C39
100
AcDbXrecord
280
     1
  1
0-
  1
0-*
  1
*
  1
*
 70
     0
  1
*
  1
*
  0
XRECORD
  5
C43
102
{ACAD_REACTORS
330
C39
102
}
330
C39
100
AcDbXrecord
280
     1
  1
00
  1
*-100
  1
*
  1
*
 70
     0
  1
*
  1
*
  0
XRECORD
  5
C44
102
{ACAD_REACTORS
330
C39
102
}
330
C39
100
AcDbXrecord
280
     1
  1
01
  1
0*a*
  1
*
  1
*
 70
     0
  1
*
  1
*
  0
XRECORD
  5
C45
102
{ACAD_REACTORS
330
C39
102
}
330
C39
100
AcDbXrecord
280
     1
  1
01KUTAI
  1
01KUTAI
  1
*
  1
*
 70
     0
  1
*
  1
*
  0
XRECORD
  5
C46
102
{ACAD_REACTORS
330
C39
102
}
330
C39
100
AcDbXrecord
280
     1
  1
01全体計画平面図
  1
00*,02*,0A*
  1
*
  1
*
 70
     0
  1
*
  1
*
  0
XRECORD
  5
C47
102
{ACAD_REACTORS
330
C39
102
}
330
C39
100
AcDbXrecord
280
     1
  1
02現況平面図
  1
00*,01*,0B*
  1
*
  1
*
 70
     0
  1
*
  1
*
  0
XRECORD
  5
C48
102
{ACAD_REACTORS
330
C39
102
}
330
C39
100
AcDbXrecord
280
     1
  1
03撤去平面図
  1
00*,01*,0C*
  1
*
  1
*
 70
     0
  1
*
  1
*
  0
XRECORD
  5
C49
102
{ACAD_REACTORS
330
C39
102
}
330
C39
100
AcDbXrecord
280
     1
  1
04造成平面図
  1
00*,02計*,0D*,03*,01*
  1
*
  1
*
 70
     0
  1
*
  1
*
  0
XRECORD
  5
C4A
102
{ACAD_REACTORS
330
C39
102
}
330
C39
100
AcDbXrecord
280
     1
  1
05
  1
*05*
  1
*
  1
*
 70
     0
  1
*
  1
*
  0
XRECORD
  5
C4B
102
{ACAD_REACTORS
330
C39
102
}
330
C39
100
AcDbXrecord
280
     1
  1
05施設平面図
  1
00*,02*,0E*,05*
  1
*
  1
*
 70
     0
  1
*
  1
*
  0
XRECORD
  5
C4C
102
{ACAD_REACTORS
330
C39
102
}
330
C39
100
AcDbXrecord
280
     1
  1
06
  1
06*
  1
*
  1
*
 70
     0
  1
*
  1
*
  0
XRECORD
  5
C4D
102
{ACAD_REACTORS
330
C39
102
}
330
C39
100
AcDbXrecord
280
     1
  1
06siki
  1
06*siki*,sikiti,00waku,*|*
  1
*
  1
*
 70
     0
  1
*
  1
*
  0
XRECORD
  5
C4E
102
{ACAD_REACTORS
330
C39
102
}
330
C39
100
AcDbXrecord
280
     1
  1
06siki2
  1
06*siki*,sikiti,00waku,*|*
  1
*
  1
*
 70
     0
  1
*
  1
*
  0
XRECORD
  5
C4F
102
{ACAD_REACTORS
330
C39
102
}
330
C39
100
AcDbXrecord
280
     1
  1
06排水平面図
  1
00*,02*,0F*
  1
*
  1
*
 70
     0
  1
*
  1
*
  0
XRECORD
  5
C50
102
{ACAD_REACTORS
330
C39
102
}
330
C39
100
AcDbXrecord
280
     1
  1
07
  1
07*
  1
*
  1
*
 70
     0
  1
*
  1
*
  0
XRECORD
  5
C51
102
{ACAD_REACTORS
330
C39
102
}
330
C39
100
AcDbXrecord
280
     1
  1
07給水平面図
  1
00*,02*,0G*
  1
*
  1
*
 70
     0
  1
*
  1
*
  0
XRECORD
  5
C52
102
{ACAD_REACTORS
330
C39
102
}
330
C39
100
AcDbXrecord
280
     1
  1
0割付平面図
  1
*わ*
  1
*
  1
*
 70
     0
  1
*
  1
*
  0
XRECORD
  5
C53
102
{ACAD_REACTORS
330
C39
102
}
330
C39
100
AcDbXrecord
280
     1
  1
0潅水平面
  1
*三*
  1
*
  1
*
 70
     0
  1
*
  1
*
  0
XRECORD
  5
C54
102
{ACAD_REACTORS
330
C39
102
}
330
C39
100
AcDbXrecord
280
     1
  1
0計画平面
  1
*け*
  1
*
  1
*
 70
     0
  1
*
  1
*
  0
XRECORD
  5
C55
102
{ACAD_REACTORS
330
C39
102
}
330
C39
100
AcDbXrecord
280
     1
  1
0高木植栽
  1
*こ*
  1
*
  1
*
 70
     0
  1
*
  1
*
  0
XRECORD
  5
C56
102
{ACAD_REACTORS
330
C39
102
}
330
C39
100
AcDbXrecord
280
     1
  1
0施設平面
  1
*し*
  1
*
  1
*
 70
     0
  1
*
  1
*
  0
XRECORD
  5
C57
102
{ACAD_REACTORS
330
C39
102
}
330
C39
100
AcDbXrecord
280
     1
  1
0床内
  1
FI-*
  1
*
  1
*
 70
     0
  1
*
  1
*
  0
XRECORD
  5
C58
102
{ACAD_REACTORS
330
C39
102
}
330
C39
100
AcDbXrecord
280
     1
  1
0床壁
  1
FW*
  1
*
  1
*
 70
     0
  1
*
  1
*
  0
XRECORD
  5
C59
102
{ACAD_REACTORS
330
C39
102
}
330
C39
100
AcDbXrecord
280
     1
  1
0照明配置図
  1
*め*
  1
*
  1
*
 70
     0
  1
*
  1
*
  0
XRECORD
  5
C5A
102
{ACAD_REACTORS
330
C39
102
}
330
C39
100
AcDbXrecord
280
     1
  1
0詳細図
  1
*-d
  1
*
  1
*
 70
     0
  1
*
  1
*
  0
XRECORD
  5
C5B
102
{ACAD_REACTORS
330
C39
102
}
330
C39
100
AcDbXrecord
280
     1
  1
0植栽基盤
  1
*ど*
  1
*
  1
*
 70
     0
  1
*
  1
*
  0
XRECORD
  5
C5C
102
{ACAD_REACTORS
330
C39
102
}
330
C39
100
AcDbXrecord
280
     1
  1
0全体工区区分図
  1
*ぜ*
  1
*
  1
*
 70
     0
  1
*
  1
*
  0
XRECORD
  5
C5D
102
{ACAD_REACTORS
330
C39
102
}
330
C39
100
AcDbXrecord
280
     1
  1
0総合図off
  1
*-s
  1
*
  1
*
 70
     0
  1
*
  1
*
  0
XRECORD
  5
C5E
102
{ACAD_REACTORS
330
C39
102
}
330
C39
100
AcDbXrecord
280
     1
  1
0総合図枠
  1
*-2
  1
*
  1
*
 70
     0
  1
*
  1
*
  0
XRECORD
  5
C5F
102
{ACAD_REACTORS
330
C39
102
}
330
C39
100
AcDbXrecord
280
     1
  1
0低木
  1
*て*
  1
*
  1
*
 70
     0
  1
*
  1
*
  0
XRECORD
  5
C60
102
{ACAD_REACTORS
330
C39
102
}
330
C39
100
AcDbXrecord
280
     1
  1
0排水平面
  1
*は*
  1
*
  1
*
 70
     0
  1
*
  1
*
  0
XRECORD
  5
C61
102
{ACAD_REACTORS
330
C39
102
}
330
C39
100
AcDbXrecord
280
     1
  1
0平詳枠
  1
*-1
  1
*
  1
*
 70
     0
  1
*
  1
*
  0
XRECORD
  5
C62
102
{ACAD_REACTORS
330
C39
102
}
330
C39
100
AcDbXrecord
280
     1
  1
0擁壁平面図
  1
*よ*
  1
*
  1
*
 70
     0
  1
*
  1
*
  0
XRECORD
  5
C63
102
{ACAD_REACTORS
330
C39
102
}
330
C39
100
AcDbXrecord
280
     1
  1
1
  1
*
  1
*
  1
*
 70
     0
  1
*
  1
*
  0
XRECORD
  5
C64
102
{ACAD_REACTORS
330
C39
102
}
330
C39
100
AcDbXrecord
280
     1
  1
10
  1
*
  1
10
  1
*
 70
     0
  1
*
  1
*
  0
XRECORD
  5
C65
102
{ACAD_REACTORS
330
C39
102
}
330
C39
100
AcDbXrecord
280
     1
  1
100
  1
50*
  1
*
  1
*
 70
     0
  1
*
  1
*
  0
XRECORD
  5
C66
102
{ACAD_REACTORS
330
C39
102
}
330
C39
100
AcDbXrecord
280
     1
  1
10植栽平面図
  1
00*,02*,0I*
  1
*
  1
*
 70
     0
  1
*
  1
*
  0
XRECORD
  5
C67
102
{ACAD_REACTORS
330
C39
102
}
330
C39
100
AcDbXrecord
280
     1
  1
11
  1
11*
  1
*
  1
*
 70
     0
  1
*
  1
*
  0
XRECORD
  5
C68
102
{ACAD_REACTORS
330
C39
102
}
330
C39
100
AcDbXrecord
280
     1
  1
1111
  1
*-50
  1
*
  1
*
 70
     0
  1
*
  1
*
  0
XRECORD
  5
C69
102
{ACAD_REACTORS
330
C39
102
}
330
C39
100
AcDbXrecord
280
     1
  1
11寸法図
  1
00*,02*,0K*,03*
  1
*
  1
*
 70
     0
  1
*
  1
*
  0
XRECORD
  5
C6A
102
{ACAD_REACTORS
330
C39
102
}
330
C39
100
AcDbXrecord
280
     1
  1
12
  1
*
  1
*12
  1
*
 70
     0
  1
*
  1
*
  0
XRECORD
  5
C6B
102
{ACAD_REACTORS
330
C39
102
}
330
C39
100
AcDbXrecord
280
     1
  1
19
  1
*19*
  1
*
  1
*
 70
     0
  1
*
  1
*
  0
XRECORD
  5
C6C
102
{ACAD_REACTORS
330
C39
102
}
330
C39
100
AcDbXrecord
280
     1
  1
１Ｆ床伏OFF
  1
-*
  1
*
  1
*
 70
     0
  1
*
  1
*
  0
XRECORD
  5
C6D
102
{ACAD_REACTORS
330
C39
102
}
330
C39
100
AcDbXrecord
280
     1
  1
1階
  1
*1階*
  1
*
  1
*
 70
     0
  1
*
  1
*
  0
XRECORD
  5
C6E
102
{ACAD_REACTORS
330
C39
102
}
330
C39
100
AcDbXrecord
280
     1
  1
1床
  1
F-*
  1
*
  1
*
 70
     0
  1
*
  1
*
  0
XRECORD
  5
C6F
102
{ACAD_REACTORS
330
C39
102
}
330
C39
100
AcDbXrecord
280
     1
  1
1芯
  1
1*
  1
*
  1
*
 70
     0
  1
*
  1
*
  0
XRECORD
  5
C70
102
{ACAD_REACTORS
330
C39
102
}
330
C39
100
AcDbXrecord
280
     1
  1
1芯線
  1
1*
  1
*
  1
*
 70
     0
  1
*
  1
*
  0
XRECORD
  5
C71
102
{ACAD_REACTORS
330
C39
102
}
330
C39
100
AcDbXrecord
280
     1
  1
20
  1
*20
  1
*
  1
*
 70
     0
  1
*
  1
*
  0
XRECORD
  5
C72
102
{ACAD_REACTORS
330
C39
102
}
330
C39
100
AcDbXrecord
280
     1
  1
21
  1
*
  1
21
  1
*
 70
     0
  1
*
  1
*
  0
XRECORD
  5
C73
102
{ACAD_REACTORS
330
C39
102
}
330
C39
100
AcDbXrecord
280
     1
  1
250
  1
*250*
  1
*
  1
*
 70
     0
  1
*
  1
*
  0
XRECORD
  5
C74
102
{ACAD_REACTORS
330
C39
102
}
330
C39
100
AcDbXrecord
280
     1
  1
2fmiage
  1
*
  1
*
  1
*
 70
     1
  1
*
  1
*
  0
XRECORD
  5
C75
102
{ACAD_REACTORS
330
C39
102
}
330
C39
100
AcDbXrecord
280
     1
  1
2躯体
  1
2*
  1
*
  1
*
 70
     0
  1
*
  1
*
  0
XRECORD
  5
C76
102
{ACAD_REACTORS
330
C39
102
}
330
C39
100
AcDbXrecord
280
     1
  1
2断面
  1
2*
  1
*
  1
*
 70
     0
  1
*
  1
*
  0
XRECORD
  5
C77
102
{ACAD_REACTORS
330
C39
102
}
330
C39
100
AcDbXrecord
280
     1
  1
2壁
  1
W-*
  1
*
  1
*
 70
     0
  1
*
  1
*
  0
XRECORD
  5
C78
102
{ACAD_REACTORS
330
C39
102
}
330
C39
100
AcDbXrecord
280
     1
  1
300
  1
*300*
  1
*
  1
*
 70
     0
  1
*
  1
*
  0
XRECORD
  5
C79
102
{ACAD_REACTORS
330
C39
102
}
330
C39
100
AcDbXrecord
280
     1
  1
32
  1
*
  1
32
  1
*
 70
     0
  1
*
  1
*
  0
XRECORD
  5
C7A
102
{ACAD_REACTORS
330
C39
102
}
330
C39
100
AcDbXrecord
280
     1
  1
333
  1
*
  1
*
  1
*
 70
    12
  1
*
  1
*
  0
XRECORD
  5
C7B
102
{ACAD_REACTORS
330
C39
102
}
330
C39
100
AcDbXrecord
280
     1
  1
37
  1
*37
  1
*
  1
*
 70
     0
  1
*
  1
*
  0
XRECORD
  5
C7C
102
{ACAD_REACTORS
330
C39
102
}
330
C39
100
AcDbXrecord
280
     1
  1
3D
  1
3D*
  1
*
  1
*
 70
     0
  1
*
  1
*
  0
XRECORD
  5
C7D
102
{ACAD_REACTORS
330
C39
102
}
330
C39
100
AcDbXrecord
280
     1
  1
3開口
  1
3*
  1
*
  1
*
 70
     0
  1
*
  1
*
  0
XRECORD
  5
C7E
102
{ACAD_REACTORS
330
C39
102
}
330
C39
100
AcDbXrecord
280
     1
  1
3見掛り
  1
3*
  1
*
  1
*
 70
     0
  1
*
  1
*
  0
XRECORD
  5
C7F
102
{ACAD_REACTORS
330
C39
102
}
330
C39
100
AcDbXrecord
280
     1
  1
3天井内
  1
CI-*
  1
*
  1
*
 70
     0
  1
*
  1
*
  0
XRECORD
  5
C80
102
{ACAD_REACTORS
330
C39
102
}
330
C39
100
AcDbXrecord
280
     1
  1
41
  1
41
  1
*
  1
*
 70
     1
  1
*
  1
*
  0
XRECORD
  5
C81
102
{ACAD_REACTORS
330
C39
102
}
330
C39
100
AcDbXrecord
280
     1
  1
4仕上げ
  1
4*
  1
*
  1
*
 70
     0
  1
*
  1
*
  0
XRECORD
  5
C82
102
{ACAD_REACTORS
330
C39
102
}
330
C39
100
AcDbXrecord
280
     1
  1
4天井
  1
C-*
  1
*
  1
*
 70
     0
  1
*
  1
*
  0
XRECORD
  5
C83
102
{ACAD_REACTORS
330
C39
102
}
330
C39
100
AcDbXrecord
280
     1
  1
5
  1
*5
  1
*
  1
*
 70
     1
  1
*
  1
*
  0
XRECORD
  5
C84
102
{ACAD_REACTORS
330
C39
102
}
330
C39
100
AcDbXrecord
280
     1
  1
50
  1
*-50
  1
*
  1
*
 70
     0
  1
*
  1
*
  0
XRECORD
  5
C85
102
{ACAD_REACTORS
330
C39
102
}
330
C39
100
AcDbXrecord
280
     1
  1
50off
  1
50*
  1
*
  1
*
 70
     0
  1
*
  1
*
  0
XRECORD
  5
C86
102
{ACAD_REACTORS
330
C39
102
}
330
C39
100
AcDbXrecord
280
     1
  1
51-52
  1
5*
  1
*
  1
*
 70
     0
  1
*
  1
*
  0
XRECORD
  5
C87
102
{ACAD_REACTORS
330
C39
102
}
330
C39
100
AcDbXrecord
280
     1
  1
555
  1
*
  1
*
  1
*
 70
     1
  1
*
  1
*
  0
XRECORD
  5
C88
102
{ACAD_REACTORS
330
C39
102
}
330
C39
100
AcDbXrecord
280
     1
  1
5寸法
  1
5*
  1
*
  1
*
 70
     0
  1
*
  1
*
  0
XRECORD
  5
C89
102
{ACAD_REACTORS
330
C39
102
}
330
C39
100
AcDbXrecord
280
     1
  1
5文字
  1
*TXT*
  1
*
  1
*
 70
     0
  1
*
  1
*
  0
XRECORD
  5
C8A
102
{ACAD_REACTORS
330
C39
102
}
330
C39
100
AcDbXrecord
280
     1
  1
6
  1
*
  1
6
  1
*
 70
     0
  1
*
  1
*
  0
XRECORD
  5
C8B
102
{ACAD_REACTORS
330
C39
102
}
330
C39
100
AcDbXrecord
280
     1
  1
66-躯体図
  1
0,Defpoints,HOJO,雲マーク,000*,010*,020*,1*,400*,470*,520*,570*,08*
  1
*
  1
*
 70
     0
  1
*
  1
*
  0
XRECORD
  5
C8C
102
{ACAD_REACTORS
330
C39
102
}
330
C39
100
AcDbXrecord
280
     1
  1
66躯体図
  1
0,Defpoints,HOJO,雲マーク,000*,010*,020*,1*,400*,470*,520*,570*,08*,6*
  1
*
  1
*
 70
     0
  1
*
  1
*
  0
XRECORD
  5
C8D
102
{ACAD_REACTORS
330
C39
102
}
330
C39
100
AcDbXrecord
280
     1
  1
6記号
  1
6*
  1
*
  1
*
 70
     0
  1
*
  1
*
  0
XRECORD
  5
C8E
102
{ACAD_REACTORS
330
C39
102
}
330
C39
100
AcDbXrecord
280
     1
  1
6文字
  1
6*
  1
*
  1
*
 70
     0
  1
*
  1
*
  0
XRECORD
  5
C8F
102
{ACAD_REACTORS
330
C39
102
}
330
C39
100
AcDbXrecord
280
     1
  1
6保留
  1
*_a
  1
*
  1
*
 70
     0
  1
*
  1
*
  0
XRECORD
  5
C90
102
{ACAD_REACTORS
330
C39
102
}
330
C39
100
AcDbXrecord
280
     1
  1
767
  1
*
  1
*
  1
*
 70
     0
  1
*
  1
*
  0
XRECORD
  5
C91
102
{ACAD_REACTORS
330
C39
102
}
330
C39
100
AcDbXrecord
280
     1
  1
767SE13-0...$
  1
*
  1
*
  1
*
 70
     0
  1
*
  1
*
  0
XRECORD
  5
C92
102
{ACAD_REACTORS
330
C39
102
}
330
C39
100
AcDbXrecord
280
     1
  1
767SE13-07-99$0$
  1
*
  1
*
  1
*
 70
     0
  1
*
  1
*
  0
XRECORD
  5
C93
102
{ACAD_REACTORS
330
C39
102
}
330
C39
100
AcDbXrecord
280
     1
  1
7記号
  1
7*
  1
*
  1
*
 70
     0
  1
*
  1
*
  0
XRECORD
  5
C94
102
{ACAD_REACTORS
330
C39
102
}
330
C39
100
AcDbXrecord
280
     1
  1
8
  1
*
  1
8
  1
*
 70
    12
  1
*
  1
*
  0
XRECORD
  5
C95
102
{ACAD_REACTORS
330
C39
102
}
330
C39
100
AcDbXrecord
280
     1
  1
8寸法
  1
8*
  1
*
  1
*
 70
     0
  1
*
  1
*
  0
XRECORD
  5
C96
102
{ACAD_REACTORS
330
C39
102
}
330
C39
100
AcDbXrecord
280
     1
  1
8設備
  1
8*
  1
*
  1
*
 70
     0
  1
*
  1
*
  0
XRECORD
  5
C97
102
{ACAD_REACTORS
330
C39
102
}
330
C39
100
AcDbXrecord
280
     1
  1
9文字
  1
9*
  1
*
  1
*
 70
     0
  1
*
  1
*
  0
XRECORD
  5
C98
102
{ACAD_REACTORS
330
C39
102
}
330
C39
100
AcDbXrecord
280
     1
  1
9目地
  1
9*
  1
*
  1
*
 70
     0
  1
*
  1
*
  0
XRECORD
  5
C99
102
{ACAD_REACTORS
330
C39
102
}
330
C39
100
AcDbXrecord
280
     1
  1
A
  1
A*
  1
*
  1
*
 70
     0
  1
*
  1
*
  0
XRECORD
  5
C9A
102
{ACAD_REACTORS
330
C39
102
}
330
C39
100
AcDbXrecord
280
     1
  1
A-
  1
A-*
  1
*
  1
*
 70
     0
  1
*
  1
*
  0
XRECORD
  5
C9B
102
{ACAD_REACTORS
330
C39
102
}
330
C39
100
AcDbXrecord
280
     1
  1
A(枠･表)を表示
  1
A*
  1
*
  1
*
 70
     0
  1
*
  1
*
  0
XRECORD
  5
C9C
102
{ACAD_REACTORS
330
C39
102
}
330
C39
100
AcDbXrecord
280
     1
  1
A01
  1
*A01*
  1
*
  1
*
 70
     0
  1
*
  1
*
  0
XRECORD
  5
C9D
102
{ACAD_REACTORS
330
C39
102
}
330
C39
100
AcDbXrecord
280
     1
  1
A1.DEMO-KEY NOTE
  1
*-D-*
  1
*
  1
*
 70
     0
  1
*
  1
*
  0
XRECORD
  5
C9E
102
{ACAD_REACTORS
330
C39
102
}
330
C39
100
AcDbXrecord
280
     1
  1
A2. CONS-KEY NOTE
  1
*-C-*
  1
*
  1
*
 70
     0
  1
*
  1
*
  0
XRECORD
  5
C9F
102
{ACAD_REACTORS
330
C39
102
}
330
C39
100
AcDbXrecord
280
     1
  1
A21
  1
*A21*
  1
*
  1
*
 70
     0
  1
*
  1
*
  0
XRECORD
  5
CA0
102
{ACAD_REACTORS
330
C39
102
}
330
C39
100
AcDbXrecord
280
     1
  1
A3
  1
*A3
  1
*
  1
*
 70
     0
  1
*
  1
*
  0
XRECORD
  5
CA1
102
{ACAD_REACTORS
330
C39
102
}
330
C39
100
AcDbXrecord
280
     1
  1
A3. RCP-LAYER
  1
*R-SCH*
  1
*
  1
*
 70
     0
  1
*
  1
*
  0
XRECORD
  5
CA2
102
{ACAD_REACTORS
330
C39
102
}
330
C39
100
AcDbXrecord
280
     1
  1
A3D. RCP_DEMO-KEY NOTE
  1
*-RD-*
  1
*
  1
*
 70
     0
  1
*
  1
*
  0
XRECORD
  5
CA3
102
{ACAD_REACTORS
330
C39
102
}
330
C39
100
AcDbXrecord
280
     1
  1
A4. P&T- KEY NOTE
  1
*T-SCH*
  1
*
  1
*
 70
     0
  1
*
  1
*
  0
XRECORD
  5
CA4
102
{ACAD_REACTORS
330
C39
102
}
330
C39
100
AcDbXrecord
280
     1
  1
A4D. EL_DEMO-KEY NOTE
  1
*-ED-*
  1
*
  1
*
 70
     0
  1
*
  1
*
  0
XRECORD
  5
CA5
102
{ACAD_REACTORS
330
C39
102
}
330
C39
100
AcDbXrecord
280
     1
  1
A5. FINISH-KEY NOTE
  1
*-N-*
  1
*
  1
*
 70
     0
  1
*
  1
*
  0
XRECORD
  5
CA6
102
{ACAD_REACTORS
330
C39
102
}
330
C39
100
AcDbXrecord
280
     1
  1
A6. FURN-KEY NOTE
  1
*-F-*
  1
*
  1
*
 70
     0
  1
*
  1
*
  0
XRECORD
  5
CA7
102
{ACAD_REACTORS
330
C39
102
}
330
C39
100
AcDbXrecord
280
     1
  1
aa
  1
*aa*
  1
*
  1
*
 70
     0
  1
*
  1
*
  0
XRECORD
  5
CA8
102
{ACAD_REACTORS
330
C39
102
}
330
C39
100
AcDbXrecord
280
     1
  1
aaa
  1
*
  1
*
  1
*
 70
     0
  1
*
  1
*
  0
XRECORD
  5
CA9
102
{ACAD_REACTORS
330
C39
102
}
330
C39
100
AcDbXrecord
280
     1
  1
AB棟
  1
ＡＢ棟*
  1
*
  1
*
 70
     0
  1
*
  1
*
  0
XRECORD
  5
CAA
102
{ACAD_REACTORS
330
C39
102
}
330
C39
100
AcDbXrecord
280
     1
  1
ＡＢ棟
  1
ＡＢ棟*
  1
*
  1
*
 70
     0
  1
*
  1
*
  0
XRECORD
  5
CAB
102
{ACAD_REACTORS
330
C39
102
}
330
C39
100
AcDbXrecord
280
     1
  1
ACTIVE
  1
C.*
  1
*
  1
*
 70
     0
  1
*
  1
*
  0
XRECORD
  5
CAC
102
{ACAD_REACTORS
330
C39
102
}
330
C39
100
AcDbXrecord
280
     1
  1
ACTIVE2
  1
B-*
  1
*
  1
*
 70
     0
  1
*
  1
*
  0
XRECORD
  5
CAD
102
{ACAD_REACTORS
330
C39
102
}
330
C39
100
AcDbXrecord
280
     1
  1
ALC
  1
*ALC
  1
*
  1
*
 70
     0
  1
*
  1
*
  0
XRECORD
  5
CAE
102
{ACAD_REACTORS
330
C39
102
}
330
C39
100
AcDbXrecord
280
     1
  1
ALL
  1
*
  1
*
  1
*
 70
     3
  1
*
  1
*
  0
XRECORD
  5
CAF
102
{ACAD_REACTORS
330
C39
102
}
330
C39
100
AcDbXrecord
280
     1
  1
all選択
  1
*
  1
*
  1
*
 70
     0
  1
*
  1
*
  0
XRECORD
  5
CB0
102
{ACAD_REACTORS
330
C39
102
}
330
C39
100
AcDbXrecord
280
     1
  1
AMENAGEMENT
  1
*
  1
*
  1
*
 70
    13
  1
*
  1
*
  0
XRECORD
  5
CB1
102
{ACAD_REACTORS
330
C39
102
}
330
C39
100
AcDbXrecord
280
     1
  1
AQ
  1
AQ*
  1
*
  1
*
 70
     0
  1
*
  1
*
  0
XRECORD
  5
CB2
102
{ACAD_REACTORS
330
C39
102
}
330
C39
100
AcDbXrecord
280
     1
  1
ARBOL
  1
*ARBOL*
  1
*
  1
*
 70
     0
  1
*
  1
*
  0
XRECORD
  5
CB3
102
{ACAD_REACTORS
330
C39
102
}
330
C39
100
AcDbXrecord
280
     1
  1
AREA
  1
*AREA*
  1
*
  1
*
 70
     0
  1
*
  1
*
  0
XRECORD
  5
CB4
102
{ACAD_REACTORS
330
C39
102
}
330
C39
100
AcDbXrecord
280
     1
  1
AREA-SG
  1
*6AREA-SG
  1
6
  1
*
 70
     0
  1
*
  1
*
  0
XRECORD
  5
CB5
102
{ACAD_REACTORS
330
C39
102
}
330
C39
100
AcDbXrecord
280
     1
  1
AS1
  1
*AS1
  1
*
  1
*
 70
     0
  1
*
  1
*
  0
XRECORD
  5
CB6
102
{ACAD_REACTORS
330
C39
102
}
330
C39
100
AcDbXrecord
280
     1
  1
aハッチング
  1
a*
  1
*
  1
*
 70
     0
  1
*
  1
*
  0
XRECORD
  5
CB7
102
{ACAD_REACTORS
330
C39
102
}
330
C39
100
AcDbXrecord
280
     1
  1
A空調
  1
*
  1
*
  1
*
 70
     0
  1
*
  1
KUCYOU
  0
XRECORD
  5
CB8
102
{ACAD_REACTORS
330
C39
102
}
330
C39
100
AcDbXrecord
280
     1
  1
B
  1
B*
  1
*
  1
*
 70
     0
  1
*
  1
*
  0
XRECORD
  5
CB9
102
{ACAD_REACTORS
330
C39
102
}
330
C39
100
AcDbXrecord
280
     1
  1
B(基準)を表示
  1
B*
  1
*
  1
*
 70
     0
  1
*
  1
*
  0
XRECORD
  5
CBA
102
{ACAD_REACTORS
330
C39
102
}
330
C39
100
AcDbXrecord
280
     1
  1
B2
  1
B2*
  1
*
  1
*
 70
     1
  1
*
  1
*
  0
XRECORD
  5
CBB
102
{ACAD_REACTORS
330
C39
102
}
330
C39
100
AcDbXrecord
280
     1
  1
B3
  1
B3*
  1
*
  1
*
 70
     0
  1
*
  1
*
  0
XRECORD
  5
CBC
102
{ACAD_REACTORS
330
C39
102
}
330
C39
100
AcDbXrecord
280
     1
  1
BAL
  1
*BAL
  1
*
  1
*
 70
     0
  1
*
  1
*
  0
XRECORD
  5
CBD
102
{ACAD_REACTORS
330
C39
102
}
330
C39
100
AcDbXrecord
280
     1
  1
baru
  1
*51A
  1
*
  1
*
 70
     0
  1
*
  1
*
  0
XRECORD
  5
CBE
102
{ACAD_REACTORS
330
C39
102
}
330
C39
100
AcDbXrecord
280
     1
  1
baru2
  1
*AS1A
  1
*
  1
*
 70
     0
  1
*
  1
*
  0
XRECORD
  5
CBF
102
{ACAD_REACTORS
330
C39
102
}
330
C39
100
AcDbXrecord
280
     1
  1
BASE
  1
*I4BASE
  1
*
  1
*
 70
     0
  1
*
  1
*
  0
XRECORD
  5
CC0
102
{ACAD_REACTORS
330
C39
102
}
330
C39
100
AcDbXrecord
280
     1
  1
bb
  1
rogarpissu,block
  1
*
  1
*
 70
     0
  1
*
  1
*
  0
XRECORD
  5
CC1
102
{ACAD_REACTORS
330
C39
102
}
330
C39
100
AcDbXrecord
280
     1
  1
bbbb
  1
prova
  1
*
  1
*
 70
    55
  1
*
  1
*
  0
XRECORD
  5
CC2
102
{ACAD_REACTORS
330
C39
102
}
330
C39
100
AcDbXrecord
280
     1
  1
beam
  1
*beam*
  1
*
  1
*
 70
     0
  1
*
  1
*
  0
XRECORD
  5
CC3
102
{ACAD_REACTORS
330
C39
102
}
330
C39
100
AcDbXrecord
280
     1
  1
blocchi
  1
mqa*
  1
*
  1
*
 70
     0
  1
*
  1
*
  0
XRECORD
  5
CC4
102
{ACAD_REACTORS
330
C39
102
}
330
C39
100
AcDbXrecord
280
     1
  1
blue
  1
*
  1
blue
  1
*
 70
     0
  1
*
  1
*
  0
XRECORD
  5
CC5
102
{ACAD_REACTORS
330
C39
102
}
330
C39
100
AcDbXrecord
280
     1
  1
BSM
  1
*BSM*
  1
*
  1
*
 70
     0
  1
*
  1
*
  0
XRECORD
  5
CC6
102
{ACAD_REACTORS
330
C39
102
}
330
C39
100
AcDbXrecord
280
     1
  1
b階段
  1
b*
  1
*
  1
*
 70
     0
  1
*
  1
*
  0
XRECORD
  5
CC7
102
{ACAD_REACTORS
330
C39
102
}
330
C39
100
AcDbXrecord
280
     1
  1
B電気
  1
*
  1
*
  1
*
 70
     0
  1
*
  1
DENKI
  0
XRECORD
  5
CC8
102
{ACAD_REACTORS
330
C39
102
}
330
C39
100
AcDbXrecord
280
     1
  1
c
  1
c*
  1
*
  1
*
 70
    61
  1
*
  1
*
  0
XRECORD
  5
CC9
102
{ACAD_REACTORS
330
C39
102
}
330
C39
100
AcDbXrecord
280
     1
  1
c-block
  1
c-*
  1
*
  1
*
 70
     0
  1
*
  1
*
  0
XRECORD
  5
CCA
102
{ACAD_REACTORS
330
C39
102
}
330
C39
100
AcDbXrecord
280
     1
  1
c-block-2
  1
c-*
  1
*
  1
*
 70
  1024
  1
*
  1
*
  0
XRECORD
  5
CCB
102
{ACAD_REACTORS
330
C39
102
}
330
C39
100
AcDbXrecord
280
     1
  1
C(寸･文･記)を表示
  1
C*
  1
*
  1
*
 70
     0
  1
*
  1
*
  0
XRECORD
  5
CCC
102
{ACAD_REACTORS
330
C39
102
}
330
C39
100
AcDbXrecord
280
     1
  1
cajetin
  1
caj*
  1
*
  1
*
 70
     0
  1
*
  1
*
  0
XRECORD
  5
CCD
102
{ACAD_REACTORS
330
C39
102
}
330
C39
100
AcDbXrecord
280
     1
  1
cc
  1
*
  1
*
  1
*
 70
     0
  1
*
  1
*
  0
XRECORD
  5
CCE
102
{ACAD_REACTORS
330
C39
102
}
330
C39
100
AcDbXrecord
280
     1
  1
CD06
  1
CD06*
  1
*
  1
*
 70
     0
  1
*
  1
*
  0
XRECORD
  5
CCF
102
{ACAD_REACTORS
330
C39
102
}
330
C39
100
AcDbXrecord
280
     1
  1
ＣＤ棟
  1
T15-*
  1
*
  1
*
 70
     0
  1
*
  1
*
  0
XRECORD
  5
CD0
102
{ACAD_REACTORS
330
C39
102
}
330
C39
100
AcDbXrecord
280
     1
  1
ceiling
  1
*ceiling*
  1
*
  1
*
 70
     0
  1
*
  1
*
  0
XRECORD
  5
CD1
102
{ACAD_REACTORS
330
C39
102
}
330
C39
100
AcDbXrecord
280
     1
  1
CEILINGS XREF
  1
*CE-SUSPENDED-CEILINGS
  1
*
  1
*
 70
     0
  1
*
  1
*
  0
XRECORD
  5
CD2
102
{ACAD_REACTORS
330
C39
102
}
330
C39
100
AcDbXrecord
280
     1
  1
CEL
  1
*
  1
*
  1
*
 70
     0
  1
*
  1
*
  0
XRECORD
  5
CD3
102
{ACAD_REACTORS
330
C39
102
}
330
C39
100
AcDbXrecord
280
     1
  1
che
  1
che*
  1
*
  1
*
 70
     0
  1
*
  1
*
  0
XRECORD
  5
CD4
102
{ACAD_REACTORS
330
C39
102
}
330
C39
100
AcDbXrecord
280
     1
  1
chika
  1
2躯体構造体点線
  1
211
  1
*
 70
     0
  1
*
  1
*
  0
XRECORD
  5
CD5
102
{ACAD_REACTORS
330
C39
102
}
330
C39
100
AcDbXrecord
280
     1
  1
CLG
  1
*CLG*
  1
*
  1
*
 70
     0
  1
*
  1
*
  0
XRECORD
  5
CD6
102
{ACAD_REACTORS
330
C39
102
}
330
C39
100
AcDbXrecord
280
     1
  1
COL
  1
*COL*
  1
*
  1
*
 70
     0
  1
*
  1
*
  0
XRECORD
  5
CD7
102
{ACAD_REACTORS
330
C39
102
}
330
C39
100
AcDbXrecord
280
     1
  1
cold beam
  1
*cold*
  1
*
  1
*
 70
     0
  1
*
  1
*
  0
XRECORD
  5
CD8
102
{ACAD_REACTORS
330
C39
102
}
330
C39
100
AcDbXrecord
280
     1
  1
colu
  1
*colu*
  1
*
  1
*
 70
     0
  1
*
  1
*
  0
XRECORD
  5
CD9
102
{ACAD_REACTORS
330
C39
102
}
330
C39
100
AcDbXrecord
280
     1
  1
com
  1
com*
  1
*
  1
*
 70
     0
  1
*
  1
*
  0
XRECORD
  5
CDA
102
{ACAD_REACTORS
330
C39
102
}
330
C39
100
AcDbXrecord
280
     1
  1
con
  1
c-*
  1
*
  1
*
 70
     0
  1
*
  1
*
  0
XRECORD
  5
CDB
102
{ACAD_REACTORS
330
C39
102
}
330
C39
100
AcDbXrecord
280
     1
  1
CRG
  1
tca-6f|*CRG*
  1
*
  1
*
 70
     0
  1
*
  1
*
  0
XRECORD
  5
CDC
102
{ACAD_REACTORS
330
C39
102
}
330
C39
100
AcDbXrecord
280
     1
  1
cyan
  1
*
  1
cyan
  1
*
 70
     0
  1
*
  1
*
  0
XRECORD
  5
CDD
102
{ACAD_REACTORS
330
C39
102
}
330
C39
100
AcDbXrecord
280
     1
  1
C衛生
  1
*
  1
*
  1
*
 70
     0
  1
*
  1
EISEI
  0
XRECORD
  5
CDE
102
{ACAD_REACTORS
330
C39
102
}
330
C39
100
AcDbXrecord
280
     1
  1
C街区関連
  1
*
  1
*
  1
*
 70
  1024
  1
*
  1
*
  0
XRECORD
  5
CDF
102
{ACAD_REACTORS
330
C39
102
}
330
C39
100
AcDbXrecord
280
     1
  1
c雑金物
  1
c*
  1
*
  1
*
 70
     0
  1
*
  1
*
  0
XRECORD
  5
CE0
102
{ACAD_REACTORS
330
C39
102
}
330
C39
100
AcDbXrecord
280
     1
  1
C打計画図
  1
001*,002*,003*,004*,005*,007*,012*,015*,016*,017*,018*,019*,020*,021*,049*,050*,051*,052*,053*,054*,055*,056*,057*,058*,059*,060*,061*,062*,063*,064*,065*,066*,067*,068*,069*,070*,071*,072*,073*,074*,075*
  1
*
  1
*
 70
     0
  1
*
  1
*
  0
XRECORD
  5
CE1
102
{ACAD_REACTORS
330
C39
102
}
330
C39
100
AcDbXrecord
280
     1
  1
D
  1
D*
  1
*
  1
*
 70
     0
  1
*
  1
*
  0
XRECORD
  5
CE2
102
{ACAD_REACTORS
330
C39
102
}
330
C39
100
AcDbXrecord
280
     1
  1
D(表現補助)を表示
  1
D*
  1
*
  1
*
 70
     0
  1
*
  1
*
  0
XRECORD
  5
CE3
102
{ACAD_REACTORS
330
C39
102
}
330
C39
100
AcDbXrecord
280
     1
  1
Ｄ・墓地　施設平面
  1
*も*
  1
*
  1
*
 70
     0
  1
*
  1
*
  0
XRECORD
  5
CE4
102
{ACAD_REACTORS
330
C39
102
}
330
C39
100
AcDbXrecord
280
     1
  1
D16
  1
D16*
  1
*
  1
*
 70
     0
  1
*
  1
*
  0
XRECORD
  5
CE5
102
{ACAD_REACTORS
330
C39
102
}
330
C39
100
AcDbXrecord
280
     1
  1
DASHED
  1
*
  1
*
  1
DASHED
 70
     0
  1
*
  1
*
  0
XRECORD
  5
CE6
102
{ACAD_REACTORS
330
C39
102
}
330
C39
100
AcDbXrecord
280
     1
  1
DASHED2
  1
*
  1
*
  1
DASHED
 70
     0
  1
*
  1
*
  0
XRECORD
  5
CE7
102
{ACAD_REACTORS
330
C39
102
}
330
C39
100
AcDbXrecord
280
     1
  1
DEMO
  1
*DEMO*
  1
*
  1
*
 70
     0
  1
*
  1
*
  0
XRECORD
  5
CE8
102
{ACAD_REACTORS
330
C39
102
}
330
C39
100
AcDbXrecord
280
     1
  1
DEMOLITION
  1
*DEMO*
  1
*
  1
*
 70
     0
  1
*
  1
*
  0
XRECORD
  5
CE9
102
{ACAD_REACTORS
330
C39
102
}
330
C39
100
AcDbXrecord
280
     1
  1
detail
  1
d*
  1
*
  1
*
 70
     0
  1
*
  1
*
  0
XRECORD
  5
CEA
102
{ACAD_REACTORS
330
C39
102
}
330
C39
100
AcDbXrecord
280
     1
  1
details
  1
det-*
  1
*
  1
*
 70
     0
  1
*
  1
*
  0
XRECORD
  5
CEB
102
{ACAD_REACTORS
330
C39
102
}
330
C39
100
AcDbXrecord
280
     1
  1
DHED
  1
*DHED*
  1
*
  1
*
 70
     0
  1
*
  1
*
  0
XRECORD
  5
CEC
102
{ACAD_REACTORS
330
C39
102
}
330
C39
100
AcDbXrecord
280
     1
  1
Dim
  1
*-Dim*
  1
*
  1
*
 70
     0
  1
*
  1
*
  0
XRECORD
  5
CED
102
{ACAD_REACTORS
330
C39
102
}
330
C39
100
AcDbXrecord
280
     1
  1
disegno
  1
ben*
  1
*
  1
*
 70
     0
  1
*
  1
*
  0
XRECORD
  5
CEE
102
{ACAD_REACTORS
330
C39
102
}
330
C39
100
AcDbXrecord
280
     1
  1
DOORS
  1
*
  1
*
  1
*
 70
     0
  1
*
  1
*
  0
XRECORD
  5
CEF
102
{ACAD_REACTORS
330
C39
102
}
330
C39
100
AcDbXrecord
280
     1
  1
DR
  1
DR*
  1
*
  1
*
 70
     0
  1
*
  1
*
  0
XRECORD
  5
CF0
102
{ACAD_REACTORS
330
C39
102
}
330
C39
100
AcDbXrecord
280
     1
  1
DT
  1
DT*
  1
*
  1
*
 70
     0
  1
*
  1
*
  0
XRECORD
  5
CF1
102
{ACAD_REACTORS
330
C39
102
}
330
C39
100
AcDbXrecord
280
     1
  1
d外構
  1
d*
  1
*
  1
*
 70
     0
  1
*
  1
*
  0
XRECORD
  5
CF2
102
{ACAD_REACTORS
330
C39
102
}
330
C39
100
AcDbXrecord
280
     1
  1
Ｄ街区低木
  1
*て*
  1
*
  1
*
 70
     0
  1
*
  1
*
  0
XRECORD
  5
CF3
102
{ACAD_REACTORS
330
C39
102
}
330
C39
100
AcDbXrecord
280
     1
  1
D割付平面
  1
*わ*
  1
*
  1
*
 70
     0
  1
*
  1
*
  0
XRECORD
  5
CF4
102
{ACAD_REACTORS
330
C39
102
}
330
C39
100
AcDbXrecord
280
     1
  1
Ｄ給水設備
  1
*ゆ*
  1
*
  1
*
 70
     0
  1
*
  1
*
  0
XRECORD
  5
CF5
102
{ACAD_REACTORS
330
C39
102
}
330
C39
100
AcDbXrecord
280
     1
  1
Ｄ計画高平面
  1
*さ*
  1
*
  1
*
 70
     0
  1
*
  1
*
  0
XRECORD
  5
CF6
102
{ACAD_REACTORS
330
C39
102
}
330
C39
100
AcDbXrecord
280
     1
  1
Ｄ計画平面
  1
*け*
  1
*
  1
*
 70
     0
  1
*
  1
*
  0
XRECORD
  5
CF7
102
{ACAD_REACTORS
330
C39
102
}
330
C39
100
AcDbXrecord
280
     1
  1
Ｄ工事区分
  1
*ぶ*
  1
*
  1
*
 70
     0
  1
*
  1
*
  0
XRECORD
  5
CF8
102
{ACAD_REACTORS
330
C39
102
}
330
C39
100
AcDbXrecord
280
     1
  1
Ｄ高木植栽
  1
*こ*
  1
*
  1
*
 70
     0
  1
*
  1
*
  0
XRECORD
  5
CF9
102
{ACAD_REACTORS
330
C39
102
}
330
C39
100
AcDbXrecord
280
     1
  1
Ｄ施設平面
  1
*し*
  1
*
  1
*
 70
     0
  1
*
  1
*
  0
XRECORD
  5
CFA
102
{ACAD_REACTORS
330
C39
102
}
330
C39
100
AcDbXrecord
280
     1
  1
Ｄ照明設備
  1
*め*
  1
*
  1
*
 70
     0
  1
*
  1
*
  0
XRECORD
  5
CFB
102
{ACAD_REACTORS
330
C39
102
}
330
C39
100
AcDbXrecord
280
     1
  1
Ｄ低木
  1
*て*
  1
*
  1
*
 70
     0
  1
*
  1
*
  0
XRECORD
  5
CFC
102
{ACAD_REACTORS
330
C39
102
}
330
C39
100
AcDbXrecord
280
     1
  1
Ｄ電気設備
  1
*で*
  1
*
  1
*
 70
     0
  1
*
  1
*
  0
XRECORD
  5
CFD
102
{ACAD_REACTORS
330
C39
102
}
330
C39
100
AcDbXrecord
280
     1
  1
Ｄ土壌改良
  1
*ど*
  1
*
  1
*
 70
     0
  1
*
  1
*
  0
XRECORD
  5
CFE
102
{ACAD_REACTORS
330
C39
102
}
330
C39
100
AcDbXrecord
280
     1
  1
Ｄ排水平面
  1
*は*
  1
*
  1
*
 70
     0
  1
*
  1
*
  0
XRECORD
  5
CFF
102
{ACAD_REACTORS
330
C39
102
}
330
C39
100
AcDbXrecord
280
     1
  1
D舗装平面
  1
*ほ*
  1
*
  1
*
 70
     0
  1
*
  1
*
  0
XRECORD
  5
D00
102
{ACAD_REACTORS
330
C39
102
}
330
C39
100
AcDbXrecord
280
     1
  1
Ｄ墓地施設平面
  1
*も*
  1
*
  1
*
 70
     0
  1
*
  1
*
  0
XRECORD
  5
D01
102
{ACAD_REACTORS
330
C39
102
}
330
C39
100
AcDbXrecord
280
     1
  1
D墓地排水
  1
*は*
  1
*
  1
*
 70
     0
  1
*
  1
*
  0
XRECORD
  5
D02
102
{ACAD_REACTORS
330
C39
102
}
330
C39
100
AcDbXrecord
280
     1
  1
E
  1
*E-*
  1
*
  1
*
 70
     0
  1
*
  1
*
  0
XRECORD
  5
D03
102
{ACAD_REACTORS
330
C39
102
}
330
C39
100
AcDbXrecord
280
     1
  1
E(点線系)を表示
  1
E*
  1
*
  1
*
 70
     0
  1
*
  1
*
  0
XRECORD
  5
D04
102
{ACAD_REACTORS
330
C39
102
}
330
C39
100
AcDbXrecord
280
     1
  1
EEEE
  1
*
  1
*
  1
*
 70
  1804
  1
*
  1
*
  0
XRECORD
  5
D05
102
{ACAD_REACTORS
330
C39
102
}
330
C39
100
AcDbXrecord
280
     1
  1
EISEI
  1
*4EISEI
  1
4
  1
*
 70
     0
  1
*
  1
*
  0
XRECORD
  5
D06
102
{ACAD_REACTORS
330
C39
102
}
330
C39
100
AcDbXrecord
280
     1
  1
elec
  1
01_elec-tgbt
  1
*
  1
*
 70
     0
  1
*
  1
*
  0
XRECORD
  5
D07
102
{ACAD_REACTORS
330
C39
102
}
330
C39
100
AcDbXrecord
280
     1
  1
ERAS1F
  1
*2ERAS1F
  1
*
  1
*
 70
     0
  1
*
  1
*
  0
XRECORD
  5
D08
102
{ACAD_REACTORS
330
C39
102
}
330
C39
100
AcDbXrecord
280
     1
  1
existing
  1
afl-* 
  1
*
  1
*
 70
     0
  1
*
  1
*
  0
XRECORD
  5
D09
102
{ACAD_REACTORS
330
C39
102
}
330
C39
100
AcDbXrecord
280
     1
  1
Exit
  1
*exit*
  1
*
  1
*
 70
     0
  1
*
  1
*
  0
XRECORD
  5
D0A
102
{ACAD_REACTORS
330
C39
102
}
330
C39
100
AcDbXrecord
280
     1
  1
F
  1
F*
  1
*
  1
*
 70
     0
  1
*
  1
*
  0
XRECORD
  5
D0B
102
{ACAD_REACTORS
330
C39
102
}
330
C39
100
AcDbXrecord
280
     1
  1
F(断面)を表示
  1
F*
  1
*
  1
*
 70
     0
  1
*
  1
*
  0
XRECORD
  5
D0C
102
{ACAD_REACTORS
330
C39
102
}
330
C39
100
AcDbXrecord
280
     1
  1
F1
  1
*
  1
*
  1
*
 70
     0
  1
*
  1
*
  0
XRECORD
  5
D0D
102
{ACAD_REACTORS
330
C39
102
}
330
C39
100
AcDbXrecord
280
     1
  1
face4
  1
*face4*
  1
*
  1
*
 70
     0
  1
*
  1
*
  0
XRECORD
  5
D0E
102
{ACAD_REACTORS
330
C39
102
}
330
C39
100
AcDbXrecord
280
     1
  1
FC_CLADDING
  1
*FC*
  1
*
  1
*
 70
     0
  1
*
  1
*
  0
XRECORD
  5
D0F
102
{ACAD_REACTORS
330
C39
102
}
330
C39
100
AcDbXrecord
280
     1
  1
FENCE
  1
*FENCE*
  1
*
  1
*
 70
     0
  1
*
  1
*
  0
XRECORD
  5
D10
102
{ACAD_REACTORS
330
C39
102
}
330
C39
100
AcDbXrecord
280
     1
  1
FF
  1
*
  1
*
  1
*
 70
     4
  1
*
  1
*
  0
XRECORD
  5
D11
102
{ACAD_REACTORS
330
C39
102
}
330
C39
100
AcDbXrecord
280
     1
  1
FH
  1
*FH*
  1
*
  1
*
 70
     0
  1
*
  1
*
  0
XRECORD
  5
D12
102
{ACAD_REACTORS
330
C39
102
}
330
C39
100
AcDbXrecord
280
     1
  1
FILTER1
  1
*
  1
*
  1
*
 70
     0
  1
*
  1
*
  0
XRECORD
  5
D13
102
{ACAD_REACTORS
330
C39
102
}
330
C39
100
AcDbXrecord
280
     1
  1
fini
  1
*fini*
  1
*
  1
*
 70
     0
  1
*
  1
*
  0
XRECORD
  5
D14
102
{ACAD_REACTORS
330
C39
102
}
330
C39
100
AcDbXrecord
280
     1
  1
finish
  1
n-*
  1
*
  1
*
 70
     0
  1
*
  1
*
  0
XRECORD
  5
D15
102
{ACAD_REACTORS
330
C39
102
}
330
C39
100
AcDbXrecord
280
     1
  1
FIRE
  1
*FIRE*
  1
*
  1
*
 70
     0
  1
*
  1
*
  0
XRECORD
  5
D16
102
{ACAD_REACTORS
330
C39
102
}
330
C39
100
AcDbXrecord
280
     1
  1
fixture
  1
f-*
  1
*
  1
*
 70
     0
  1
*
  1
*
  0
XRECORD
  5
D17
102
{ACAD_REACTORS
330
C39
102
}
330
C39
100
AcDbXrecord
280
     1
  1
fl
  1
*FL*
  1
*
  1
*
 70
     0
  1
*
  1
*
  0
XRECORD
  5
D18
102
{ACAD_REACTORS
330
C39
102
}
330
C39
100
AcDbXrecord
280
     1
  1
Floor
  1
A-Flor*
  1
*
  1
*
 70
     0
  1
*
  1
*
  0
XRECORD
  5
D19
102
{ACAD_REACTORS
330
C39
102
}
330
C39
100
AcDbXrecord
280
     1
  1
FLOOR PLAN
  1
A-FLR-*
  1
*
  1
*
 70
     0
  1
*
  1
*
  0
XRECORD
  5
D1A
102
{ACAD_REACTORS
330
C39
102
}
330
C39
100
AcDbXrecord
280
     1
  1
fr
  1
*
  1
*
  1
*
 70
     4
  1
*
  1
*
  0
XRECORD
  5
D1B
102
{ACAD_REACTORS
330
C39
102
}
330
C39
100
AcDbXrecord
280
     1
  1
freeze
  1
*
  1
*
  1
*
 70
     4
  1
*
  1
*
  0
XRECORD
  5
D1C
102
{ACAD_REACTORS
330
C39
102
}
330
C39
100
AcDbXrecord
280
     1
  1
FRZ
  1
*
  1
*
  1
*
 70
     4
  1
*
  1
*
  0
XRECORD
  5
D1D
102
{ACAD_REACTORS
330
C39
102
}
330
C39
100
AcDbXrecord
280
     1
  1
Fugou
  1
*-Fugou*
  1
*
  1
*
 70
     0
  1
*
  1
*
  0
XRECORD
  5
D1E
102
{ACAD_REACTORS
330
C39
102
}
330
C39
100
AcDbXrecord
280
     1
  1
FUGOU-TATEGU
  1
*FUGOU-TATEGU
  1
*
  1
*
 70
     0
  1
*
  1
*
  0
XRECORD
  5
D1F
102
{ACAD_REACTORS
330
C39
102
}
330
C39
100
AcDbXrecord
280
     1
  1
FUKI
  1
*FUKI
  1
*
  1
*
 70
     0
  1
*
  1
*
  0
XRECORD
  5
D20
102
{ACAD_REACTORS
330
C39
102
}
330
C39
100
AcDbXrecord
280
     1
  1
FURN
  1
*F-*
  1
*
  1
*
 70
     0
  1
*
  1
*
  0
XRECORD
  5
D21
102
{ACAD_REACTORS
330
C39
102
}
330
C39
100
AcDbXrecord
280
     1
  1
FURNITURE
  1
*FN*
  1
*
  1
*
 70
     0
  1
*
  1
*
  0
XRECORD
  5
D22
102
{ACAD_REACTORS
330
C39
102
}
330
C39
100
AcDbXrecord
280
     1
  1
FUSE_00
  1
*
  1
*
  1
*
 70
     0
  1
*
  1
*
  0
XRECORD
  5
D23
102
{ACAD_REACTORS
330
C39
102
}
330
C39
100
AcDbXrecord
280
     1
  1
G
  1
*-G*
  1
*
  1
*
 70
     0
  1
*
  1
*
  0
XRECORD
  5
D24
102
{ACAD_REACTORS
330
C39
102
}
330
C39
100
AcDbXrecord
280
     1
  1
G(開口)を表示
  1
G*
  1
*
  1
*
 70
     0
  1
*
  1
*
  0
XRECORD
  5
D25
102
{ACAD_REACTORS
330
C39
102
}
330
C39
100
AcDbXrecord
280
     1
  1
GAIKOU
  1
*
  1
*
  1
*
 70
     0
  1
*
  1
*
  0
XRECORD
  5
D26
102
{ACAD_REACTORS
330
C39
102
}
330
C39
100
AcDbXrecord
280
     1
  1
gel
  1
*ILLUMI*
  1
*
  1
*
 70
     0
  1
*
  1
*
  0
XRECORD
  5
D27
102
{ACAD_REACTORS
330
C39
102
}
330
C39
100
AcDbXrecord
280
     1
  1
gen
  1
g*,*$*
  1
*
  1
*
 70
     0
  1
*
  1
*
  0
XRECORD
  5
D28
102
{ACAD_REACTORS
330
C39
102
}
330
C39
100
AcDbXrecord
280
     1
  1
gondora
  1
a-gondora*
  1
*
  1
*
 70
     0
  1
*
  1
*
  0
XRECORD
  5
D29
102
{ACAD_REACTORS
330
C39
102
}
330
C39
100
AcDbXrecord
280
     1
  1
green
  1
*
  1
green
  1
*
 70
     0
  1
*
  1
*
  0
XRECORD
  5
D2A
102
{ACAD_REACTORS
330
C39
102
}
330
C39
100
AcDbXrecord
280
     1
  1
GRID
  1
G*
  1
*
  1
*
 70
     0
  1
*
  1
*
  0
XRECORD
  5
D2B
102
{ACAD_REACTORS
330
C39
102
}
330
C39
100
AcDbXrecord
280
     1
  1
gris
  1
*
  1
*
  1
*
 70
     0
  1
*
  1
*
  0
XRECORD
  5
D2C
102
{ACAD_REACTORS
330
C39
102
}
330
C39
100
AcDbXrecord
280
     1
  1
H
  1
00*,01*,02*,03*,05*,06*,1*,2*,3*,4*,5*,6*,8*,D*,
  1
*
  1
*
 70
     0
  1
*
  1
*
  0
XRECORD
  5
D2D
102
{ACAD_REACTORS
330
C39
102
}
330
C39
100
AcDbXrecord
280
     1
  1
H-
  1
H-*
  1
*
  1
*
 70
     0
  1
*
  1
*
  0
XRECORD
  5
D2E
102
{ACAD_REACTORS
330
C39
102
}
330
C39
100
AcDbXrecord
280
     1
  1
H-SIN
  1
*H-SIN
  1
*
  1
*
 70
     0
  1
*
  1
*
  0
XRECORD
  5
D2F
102
{ACAD_REACTORS
330
C39
102
}
330
C39
100
AcDbXrecord
280
     1
  1
H(見掛)を表示
  1
H*
  1
*
  1
*
 70
     0
  1
*
  1
*
  0
XRECORD
  5
D30
102
{ACAD_REACTORS
330
C39
102
}
330
C39
100
AcDbXrecord
280
     1
  1
HA
  1
*HA*
  1
*
  1
*
 70
     0
  1
*
  1
*
  0
XRECORD
  5
D31
102
{ACAD_REACTORS
330
C39
102
}
330
C39
100
AcDbXrecord
280
     1
  1
haikin
  1
2-*
  1
*
  1
*
 70
     0
  1
*
  1
*
  0
XRECORD
  5
D32
102
{ACAD_REACTORS
330
C39
102
}
330
C39
100
AcDbXrecord
280
     1
  1
HAISEN
  1
*1,HAISEN
  1
*
  1
*
 70
     0
  1
*
  1
*
  0
XRECORD
  5
D33
102
{ACAD_REACTORS
330
C39
102
}
330
C39
100
AcDbXrecord
280
     1
  1
HARI
  1
*HARI
  1
*
  1
*
 70
     0
  1
*
  1
*
  0
XRECORD
  5
D34
102
{ACAD_REACTORS
330
C39
102
}
330
C39
100
AcDbXrecord
280
     1
  1
hasira
  1
*hasira*
  1
*
  1
*
 70
     0
  1
*
  1
*
  0
XRECORD
  5
D35
102
{ACAD_REACTORS
330
C39
102
}
330
C39
100
AcDbXrecord
280
     1
  1
HATCH
  1
*HATCH*
  1
*
  1
*
 70
     0
  1
*
  1
*
  0
XRECORD
  5
D36
102
{ACAD_REACTORS
330
C39
102
}
330
C39
100
AcDbXrecord
280
     1
  1
HCP
  1
*HCP*
  1
*
  1
*
 70
     0
  1
*
  1
*
  0
XRECORD
  5
D37
102
{ACAD_REACTORS
330
C39
102
}
330
C39
100
AcDbXrecord
280
     1
  1
HEISHO
  1
4MAJ
  1
*
  1
*
 70
     0
  1
*
  1
*
  0
XRECORD
  5
D38
102
{ACAD_REACTORS
330
C39
102
}
330
C39
100
AcDbXrecord
280
     1
  1
HEISHO2
  1
4MAJ,3CWD,3TAT
  1
*
  1
*
 70
     0
  1
*
  1
*
  0
XRECORD
  5
D39
102
{ACAD_REACTORS
330
C39
102
}
330
C39
100
AcDbXrecord
280
     1
  1
HIDDEN
  1
*
  1
*
  1
HIDDEN
 70
     0
  1
*
  1
*
  0
XRECORD
  5
D3A
102
{ACAD_REACTORS
330
C39
102
}
330
C39
100
AcDbXrecord
280
     1
  1
HOJO
  1
*HOJO
  1
*
  1
*
 70
     0
  1
*
  1
*
  0
XRECORD
  5
D3B
102
{ACAD_REACTORS
330
C39
102
}
330
C39
100
AcDbXrecord
280
     1
  1
hollywood
  1
*
  1
*
  1
*
 70
    12
  1
*
  1
*
  0
XRECORD
  5
D3C
102
{ACAD_REACTORS
330
C39
102
}
330
C39
100
AcDbXrecord
280
     1
  1
HOTEL
  1
*HOT*
  1
*
  1
*
 70
     0
  1
*
  1
*
  0
XRECORD
  5
D3D
102
{ACAD_REACTORS
330
C39
102
}
330
C39
100
AcDbXrecord
280
     1
  1
huse
  1
0,defpoints
  1
*
  1
*
 70
     0
  1
*
  1
*
  0
XRECORD
  5
D3E
102
{ACAD_REACTORS
330
C39
102
}
330
C39
100
AcDbXrecord
280
     1
  1
HYOKI
  1
*HYOKI
  1
*
  1
*
 70
     0
  1
*
  1
*
  0
XRECORD
  5
D3F
102
{ACAD_REACTORS
330
C39
102
}
330
C39
100
AcDbXrecord
280
     1
  1
HYOUKI
  1
*
  1
*
  1
*
 70
     0
  1
*
  1
*
  0
XRECORD
  5
D40
102
{ACAD_REACTORS
330
C39
102
}
330
C39
100
AcDbXrecord
280
     1
  1
i
  1
*
  1
*
  1
*
 70
     0
  1
*
  1
*
  0
XRECORD
  5
D41
102
{ACAD_REACTORS
330
C39
102
}
330
C39
100
AcDbXrecord
280
     1
  1
I(二次部材系))を表示
  1
I*
  1
*
  1
*
 70
     0
  1
*
  1
*
  0
XRECORD
  5
D42
102
{ACAD_REACTORS
330
C39
102
}
330
C39
100
AcDbXrecord
280
     1
  1
I2
  1
*I2CL*
  1
*
  1
*
 70
     0
  1
*
  1
*
  0
XRECORD
  5
D43
102
{ACAD_REACTORS
330
C39
102
}
330
C39
100
AcDbXrecord
280
     1
  1
i2cl
  1
*i2c?*
  1
*
  1
*
 70
     0
  1
*
  1
*
  0
XRECORD
  5
D44
102
{ACAD_REACTORS
330
C39
102
}
330
C39
100
AcDbXrecord
280
     1
  1
i5
  1
*i5*
  1
*
  1
*
 70
     0
  1
*
  1
*
  0
XRECORD
  5
D45
102
{ACAD_REACTORS
330
C39
102
}
330
C39
100
AcDbXrecord
280
     1
  1
i9
  1
*i9*
  1
*
  1
*
 70
     0
  1
*
  1
*
  0
XRECORD
  5
D46
102
{ACAD_REACTORS
330
C39
102
}
330
C39
100
AcDbXrecord
280
     1
  1
in
  1
*
  1
*
  1
*
 70
     4
  1
*
  1
*
  0
XRECORD
  5
D47
102
{ACAD_REACTORS
330
C39
102
}
330
C39
100
AcDbXrecord
280
     1
  1
INSERT図
  1
*
  1
*
  1
*
 70
    12
  1
*
  1
*
  0
XRECORD
  5
D48
102
{ACAD_REACTORS
330
C39
102
}
330
C39
100
AcDbXrecord
280
     1
  1
ISSUE
  1
*-ISSUE1-*
  1
*
  1
*
 70
     0
  1
*
  1
*
  0
XRECORD
  5
D49
102
{ACAD_REACTORS
330
C39
102
}
330
C39
100
AcDbXrecord
280
     1
  1
J
  1
*J*
  1
*
  1
*
 70
     0
  1
*
  1
*
  0
XRECORD
  5
D4A
102
{ACAD_REACTORS
330
C39
102
}
330
C39
100
AcDbXrecord
280
     1
  1
K
  1
K*
  1
*
  1
*
 70
     0
  1
*
  1
*
  0
XRECORD
  5
D4B
102
{ACAD_REACTORS
330
C39
102
}
330
C39
100
AcDbXrecord
280
     1
  1
KABE
  1
*KABE
  1
*
  1
*
 70
     0
  1
*
  1
*
  0
XRECORD
  5
D4C
102
{ACAD_REACTORS
330
C39
102
}
330
C39
100
AcDbXrecord
280
     1
  1
KABESHIN
  1
*A12
  1
*
  1
*
 70
     0
  1
*
  1
*
  0
XRECORD
  5
D4D
102
{ACAD_REACTORS
330
C39
102
}
330
C39
100
AcDbXrecord
280
     1
  1
KAGU
  1
*KAGU*
  1
*
  1
*
 70
     0
  1
*
  1
*
  0
XRECORD
  5
D4E
102
{ACAD_REACTORS
330
C39
102
}
330
C39
100
AcDbXrecord
280
     1
  1
key
  1
keyplan
  1
*
  1
*
 70
     0
  1
*
  1
*
  0
XRECORD
  5
D4F
102
{ACAD_REACTORS
330
C39
102
}
330
C39
100
AcDbXrecord
280
     1
  1
KI
  1
KI*
  1
*
  1
*
 70
     0
  1
*
  1
*
  0
XRECORD
  5
D50
102
{ACAD_REACTORS
330
C39
102
}
330
C39
100
AcDbXrecord
280
     1
  1
KIGO
  1
*KIGO*
  1
*
  1
*
 70
     0
  1
*
  1
*
  0
XRECORD
  5
D51
102
{ACAD_REACTORS
330
C39
102
}
330
C39
100
AcDbXrecord
280
     1
  1
KIJUN
  1
*KIJUN
  1
*
  1
*
 70
     0
  1
*
  1
*
  0
XRECORD
  5
D52
102
{ACAD_REACTORS
330
C39
102
}
330
C39
100
AcDbXrecord
280
     1
  1
kiso
  1
f1*
  1
*
  1
*
 70
     0
  1
*
  1
*
  0
XRECORD
  5
D53
102
{ACAD_REACTORS
330
C39
102
}
330
C39
100
AcDbXrecord
280
     1
  1
KSIN
  1
*2KSIN
  1
21
  1
*
 70
     0
  1
*
  1
*
  0
XRECORD
  5
D54
102
{ACAD_REACTORS
330
C39
102
}
330
C39
100
AcDbXrecord
280
     1
  1
kui
  1
*
  1
*
  1
*
 70
     4
  1
*
  1
*
  0
XRECORD
  5
D55
102
{ACAD_REACTORS
330
C39
102
}
330
C39
100
AcDbXrecord
280
     1
  1
KUTAI
  1
*
  1
*
  1
*
 70
     0
  1
*
  1
*
  0
XRECORD
  5
D56
102
{ACAD_REACTORS
330
C39
102
}
330
C39
100
AcDbXrecord
280
     1
  1
L
  1
L*
  1
*
  1
*
 70
     0
  1
*
  1
*
  0
XRECORD
  5
D57
102
{ACAD_REACTORS
330
C39
102
}
330
C39
100
AcDbXrecord
280
     1
  1
LEGEND
  1
*-C-*
  1
*
  1
*
 70
     0
  1
*
  1
*
  0
XRECORD
  5
D58
102
{ACAD_REACTORS
330
C39
102
}
330
C39
100
AcDbXrecord
280
     1
  1
LGS
  1
*LGS*
  1
*
  1
*
 70
     0
  1
*
  1
*
  0
XRECORD
  5
D59
102
{ACAD_REACTORS
330
C39
102
}
330
C39
100
AcDbXrecord
280
     1
  1
light
  1
*light*
  1
*
  1
*
 70
     0
  1
*
  1
*
  0
XRECORD
  5
D5A
102
{ACAD_REACTORS
330
C39
102
}
330
C39
100
AcDbXrecord
280
     1
  1
LIST
  1
*LIST*
  1
*
  1
*
 70
     0
  1
*
  1
*
  0
XRECORD
  5
D5B
102
{ACAD_REACTORS
330
C39
102
}
330
C39
100
AcDbXrecord
280
     1
  1
lixo
  1
*
  1
*
  1
*
 70
  3072
  1
*
  1
*
  0
XRECORD
  5
D5C
102
{ACAD_REACTORS
330
C39
102
}
330
C39
100
AcDbXrecord
280
     1
  1
LOCK
  1
*
  1
*
  1
*
 70
   256
  1
*
  1
*
  0
XRECORD
  5
D5D
102
{ACAD_REACTORS
330
C39
102
}
330
C39
100
AcDbXrecord
280
     1
  1
LTA
  1
*
  1
*
  1
*
 70
   768
  1
*
  1
*
  0
XRECORD
  5
D5E
102
{ACAD_REACTORS
330
C39
102
}
330
C39
100
AcDbXrecord
280
     1
  1
Ｌ建具
  1
L*tategu*
  1
*
  1
*
 70
     0
  1
*
  1
*
  0
XRECORD
  5
D5F
102
{ACAD_REACTORS
330
C39
102
}
330
C39
100
AcDbXrecord
280
     1
  1
M
  1
M*
  1
*
  1
*
 70
     0
  1
*
  1
*
  0
XRECORD
  5
D60
102
{ACAD_REACTORS
330
C39
102
}
330
C39
100
AcDbXrecord
280
     1
  1
MA
  1
MA*
  1
*
  1
*
 70
     0
  1
*
  1
*
  0
XRECORD
  5
D61
102
{ACAD_REACTORS
330
C39
102
}
330
C39
100
AcDbXrecord
280
     1
  1
MACONNERIE
  1
*
  1
*
  1
*
 70
     0
  1
*
  1
*
  0
XRECORD
  5
D62
102
{ACAD_REACTORS
330
C39
102
}
330
C39
100
AcDbXrecord
280
     1
  1
magenta
  1
*
  1
magenta
  1
*
 70
     0
  1
*
  1
*
  0
XRECORD
  5
D63
102
{ACAD_REACTORS
330
C39
102
}
330
C39
100
AcDbXrecord
280
     1
  1
magenta-bleu
  1
*
  1
magenta,bleu
  1
*
 70
     0
  1
*
  1
*
  0
XRECORD
  5
D64
102
{ACAD_REACTORS
330
C39
102
}
330
C39
100
AcDbXrecord
280
     1
  1
maji
  1
*A12
  1
*
  1
*
 70
     0
  1
*
  1
*
  0
XRECORD
  5
D65
102
{ACAD_REACTORS
330
C39
102
}
330
C39
100
AcDbXrecord
280
     1
  1
MAJIKIRI
  1
*MAJIKIRI
  1
*
  1
*
 70
     0
  1
*
  1
*
  0
XRECORD
  5
D66
102
{ACAD_REACTORS
330
C39
102
}
330
C39
100
AcDbXrecord
280
     1
  1
marco
  1
marco*
  1
*
  1
*
 70
     0
  1
*
  1
*
  0
XRECORD
  5
D67
102
{ACAD_REACTORS
330
C39
102
}
330
C39
100
AcDbXrecord
280
     1
  1
MB
  1
*MB
  1
*
  1
*
 70
     0
  1
*
  1
*
  0
XRECORD
  5
D68
102
{ACAD_REACTORS
330
C39
102
}
330
C39
100
AcDbXrecord
280
     1
  1
meji
  1
*MEJI
  1
*
  1
*
 70
     0
  1
*
  1
*
  0
XRECORD
  5
D69
102
{ACAD_REACTORS
330
C39
102
}
330
C39
100
AcDbXrecord
280
     1
  1
merceologico
  1
mq*
  1
*
  1
*
 70
     0
  1
*
  1
*
  0
XRECORD
  5
D6A
102
{ACAD_REACTORS
330
C39
102
}
330
C39
100
AcDbXrecord
280
     1
  1
MILL
  1
*MILL*
  1
*
  1
*
 70
     0
  1
*
  1
*
  0
XRECORD
  5
D6B
102
{ACAD_REACTORS
330
C39
102
}
330
C39
100
AcDbXrecord
280
     1
  1
MILLWORK
  1
*mILL*
  1
*
  1
*
 70
     0
  1
*
  1
*
  0
XRECORD
  5
D6C
102
{ACAD_REACTORS
330
C39
102
}
330
C39
100
AcDbXrecord
280
     1
  1
miwa
  1
*
  1
*
  1
*
 70
     0
  1
*
  1
*
  0
XRECORD
  5
D6D
102
{ACAD_REACTORS
330
C39
102
}
330
C39
100
AcDbXrecord
280
     1
  1
MOJI
  1
*MOJI
  1
*
  1
*
 70
     0
  1
*
  1
*
  0
XRECORD
  5
D6E
102
{ACAD_REACTORS
330
C39
102
}
330
C39
100
AcDbXrecord
280
     1
  1
MOJI100
  1
*5MOJI100
  1
3
  1
*
 70
     0
  1
*
  1
*
  0
XRECORD
  5
D6F
102
{ACAD_REACTORS
330
C39
102
}
330
C39
100
AcDbXrecord
280
     1
  1
N
  1
*N*
  1
*
  1
*
 70
     0
  1
*
  1
*
  0
XRECORD
  5
D70
102
{ACAD_REACTORS
330
C39
102
}
330
C39
100
AcDbXrecord
280
     1
  1
N-
  1
N-*
  1
*
  1
*
 70
     0
  1
*
  1
*
  0
XRECORD
  5
D71
102
{ACAD_REACTORS
330
C39
102
}
330
C39
100
AcDbXrecord
280
     1
  1
NAM
  1
*NAM*
  1
*
  1
*
 70
     0
  1
*
  1
*
  0
XRECORD
  5
D72
102
{ACAD_REACTORS
330
C39
102
}
330
C39
100
AcDbXrecord
280
     1
  1
NEW
  1
*NEW*
  1
*
  1
*
 70
     0
  1
*
  1
*
  0
XRECORD
  5
D73
102
{ACAD_REACTORS
330
C39
102
}
330
C39
100
AcDbXrecord
280
     1
  1
NHK
  1
N*
  1
*
  1
*
 70
     0
  1
*
  1
*
  0
XRECORD
  5
D74
102
{ACAD_REACTORS
330
C39
102
}
330
C39
100
AcDbXrecord
280
     1
  1
no xref
  1
~*|*
  1
*
  1
*
 70
     0
  1
*
  1
*
  0
XRECORD
  5
D75
102
{ACAD_REACTORS
330
C39
102
}
330
C39
100
AcDbXrecord
280
     1
  1
note
  1
tca-6f|*note*
  1
*
  1
*
 70
     0
  1
*
  1
*
  0
XRECORD
  5
D76
102
{ACAD_REACTORS
330
C39
102
}
330
C39
100
AcDbXrecord
280
     1
  1
NUM
  1
*NUM*
  1
*
  1
*
 70
     0
  1
*
  1
*
  0
XRECORD
  5
D77
102
{ACAD_REACTORS
330
C39
102
}
330
C39
100
AcDbXrecord
280
     1
  1
NUMB
  1
*NUM*
  1
*
  1
*
 70
     0
  1
*
  1
*
  0
XRECORD
  5
D78
102
{ACAD_REACTORS
330
C39
102
}
330
C39
100
AcDbXrecord
280
     1
  1
O
  1
*O*
  1
*
  1
*
 70
     0
  1
*
  1
*
  0
XRECORD
  5
D79
102
{ACAD_REACTORS
330
C39
102
}
330
C39
100
AcDbXrecord
280
     1
  1
OF
  1
*
  1
*
  1
*
 70
     3
  1
*
  1
*
  0
XRECORD
  5
D7A
102
{ACAD_REACTORS
330
C39
102
}
330
C39
100
AcDbXrecord
280
     1
  1
OFF
  1
*
  1
*
  1
*
 70
     3
  1
*
  1
*
  0
XRECORD
  5
D7B
102
{ACAD_REACTORS
330
C39
102
}
330
C39
100
AcDbXrecord
280
     1
  1
on
  1
*
  1
*
  1
*
 70
    13
  1
*
  1
*
  0
XRECORD
  5
D7C
102
{ACAD_REACTORS
330
C39
102
}
330
C39
100
AcDbXrecord
280
     1
  1
option 1
  1
1*
  1
*
  1
*
 70
     0
  1
*
  1
*
  0
XRECORD
  5
D7D
102
{ACAD_REACTORS
330
C39
102
}
330
C39
100
AcDbXrecord
280
     1
  1
option 2
  1
2*
  1
*
  1
*
 70
     0
  1
*
  1
*
  0
XRECORD
  5
D7E
102
{ACAD_REACTORS
330
C39
102
}
330
C39
100
AcDbXrecord
280
     1
  1
OUTLINE
  1
T_*|OUTLINE
  1
*
  1
*
 70
     0
  1
*
  1
*
  0
XRECORD
  5
D7F
102
{ACAD_REACTORS
330
C39
102
}
330
C39
100
AcDbXrecord
280
     1
  1
P
  1
*-P*
  1
*
  1
*
 70
     0
  1
*
  1
*
  0
XRECORD
  5
D80
102
{ACAD_REACTORS
330
C39
102
}
330
C39
100
AcDbXrecord
280
     1
  1
pa
  1
*pa*
  1
*
  1
*
 70
     0
  1
*
  1
*
  0
XRECORD
  5
D81
102
{ACAD_REACTORS
330
C39
102
}
330
C39
100
AcDbXrecord
280
     1
  1
PALFOND
  1
*
  1
*
  1
*
 70
    13
  1
*
  1
*
  0
XRECORD
  5
D82
102
{ACAD_REACTORS
330
C39
102
}
330
C39
100
AcDbXrecord
280
     1
  1
PAT
  1
*PAT*
  1
*
  1
*
 70
     0
  1
*
  1
*
  0
XRECORD
  5
D83
102
{ACAD_REACTORS
330
C39
102
}
330
C39
100
AcDbXrecord
280
     1
  1
PC
  1
PC*
  1
*
  1
*
 70
     0
  1
*
  1
*
  0
XRECORD
  5
D84
102
{ACAD_REACTORS
330
C39
102
}
330
C39
100
AcDbXrecord
280
     1
  1
PISO
  1
*PISO
  1
*
  1
*
 70
     0
  1
*
  1
*
  0
XRECORD
  5
D85
102
{ACAD_REACTORS
330
C39
102
}
330
C39
100
AcDbXrecord
280
     1
  1
PLAN
  1
A*,B*,SITE*
  1
*
  1
*
 70
     0
  1
*
  1
*
  0
XRECORD
  5
D86
102
{ACAD_REACTORS
330
C39
102
}
330
C39
100
AcDbXrecord
280
     1
  1
PLMB
  1
*PLMB*
  1
*
  1
*
 70
     0
  1
*
  1
*
  0
XRECORD
  5
D87
102
{ACAD_REACTORS
330
C39
102
}
330
C39
100
AcDbXrecord
280
     1
  1
plot
  1
*
  1
*
  1
*
 70
     1
  1
*
  1
*
  0
XRECORD
  5
D88
102
{ACAD_REACTORS
330
C39
102
}
330
C39
100
AcDbXrecord
280
     1
  1
PLUMB
  1
*PLUMB*
  1
*
  1
*
 70
     0
  1
*
  1
*
  0
XRECORD
  5
D89
102
{ACAD_REACTORS
330
C39
102
}
330
C39
100
AcDbXrecord
280
     1
  1
PNL
  1
*PNL*
  1
*
  1
*
 70
     0
  1
*
  1
*
  0
XRECORD
  5
D8A
102
{ACAD_REACTORS
330
C39
102
}
330
C39
100
AcDbXrecord
280
     1
  1
power
  1
p-*
  1
*
  1
*
 70
     0
  1
*
  1
*
  0
XRECORD
  5
D8B
102
{ACAD_REACTORS
330
C39
102
}
330
C39
100
AcDbXrecord
280
     1
  1
PRT
  1
*PRT*
  1
*
  1
*
 70
     0
  1
*
  1
*
  0
XRECORD
  5
D8C
102
{ACAD_REACTORS
330
C39
102
}
330
C39
100
AcDbXrecord
280
     1
  1
q
  1
*
  1
*
  1
*
 70
     4
  1
*
  1
*
  0
XRECORD
  5
D8D
102
{ACAD_REACTORS
330
C39
102
}
330
C39
100
AcDbXrecord
280
     1
  1
R
  1
R*
  1
*
  1
*
 70
     0
  1
*
  1
*
  0
XRECORD
  5
D8E
102
{ACAD_REACTORS
330
C39
102
}
330
C39
100
AcDbXrecord
280
     1
  1
rack
  1
*rack*
  1
*
  1
*
 70
     0
  1
*
  1
*
  0
XRECORD
  5
D8F
102
{ACAD_REACTORS
330
C39
102
}
330
C39
100
AcDbXrecord
280
     1
  1
RC
  1
*RC
  1
*
  1
*
 70
     0
  1
*
  1
*
  0
XRECORD
  5
D90
102
{ACAD_REACTORS
330
C39
102
}
330
C39
100
AcDbXrecord
280
     1
  1
RCP
  1
A*,C*
  1
*
  1
*
 70
     0
  1
*
  1
*
  0
XRECORD
  5
D91
102
{ACAD_REACTORS
330
C39
102
}
330
C39
100
AcDbXrecord
280
     1
  1
rm
  1
*r*
  1
*
  1
*
 70
     0
  1
*
  1
*
  0
XRECORD
  5
D92
102
{ACAD_REACTORS
330
C39
102
}
330
C39
100
AcDbXrecord
280
     1
  1
RMTAGS
  1
R*
  1
*
  1
*
 70
     0
  1
*
  1
*
  0
XRECORD
  5
D93
102
{ACAD_REACTORS
330
C39
102
}
330
C39
100
AcDbXrecord
280
     1
  1
RNUM
  1
*NUM*
  1
*
  1
*
 70
     0
  1
*
  1
*
  0
XRECORD
  5
D94
102
{ACAD_REACTORS
330
C39
102
}
330
C39
100
AcDbXrecord
280
     1
  1
ROOM
  1
*RM*
  1
*
  1
*
 70
     0
  1
*
  1
*
  0
XRECORD
  5
D95
102
{ACAD_REACTORS
330
C39
102
}
330
C39
100
AcDbXrecord
280
     1
  1
roomno
  1
*num*
  1
*
  1
*
 70
     0
  1
*
  1
*
  0
XRECORD
  5
D96
102
{ACAD_REACTORS
330
C39
102
}
330
C39
100
AcDbXrecord
280
     1
  1
rouge
  1
*
  1
1
  1
*
 70
     1
  1
*
  1
*
  0
XRECORD
  5
D97
102
{ACAD_REACTORS
330
C39
102
}
330
C39
100
AcDbXrecord
280
     1
  1
rtkl
  1
*rtkl*
  1
*
  1
*
 70
     0
  1
*
  1
*
  0
XRECORD
  5
D98
102
{ACAD_REACTORS
330
C39
102
}
330
C39
100
AcDbXrecord
280
     1
  1
S
  1
0,05*,11*,12*,13*,14*,20*,21*,22*,55*,56*,
  1
*
  1
*
 70
     0
  1
*
  1
*
  0
XRECORD
  5
D99
102
{ACAD_REACTORS
330
C39
102
}
330
C39
100
AcDbXrecord
280
     1
  1
saciencewold
  1
*
  1
*
  1
*
 70
     0
  1
*
  1
*
  0
XRECORD
  5
D9A
102
{ACAD_REACTORS
330
C39
102
}
330
C39
100
AcDbXrecord
280
     1
  1
SETUBI
  1
*SETUBI
  1
*
  1
*
 70
     0
  1
*
  1
*
  0
XRECORD
  5
D9B
102
{ACAD_REACTORS
330
C39
102
}
330
C39
100
AcDbXrecord
280
     1
  1
SHITU
  1
*SHITUMEI*
  1
*
  1
*
 70
     0
  1
*
  1
*
  0
XRECORD
  5
D9C
102
{ACAD_REACTORS
330
C39
102
}
330
C39
100
AcDbXrecord
280
     1
  1
SHITUMEI
  1
*SHITUMEI2
  1
*
  1
*
 70
     0
  1
*
  1
*
  0
XRECORD
  5
D9D
102
{ACAD_REACTORS
330
C39
102
}
330
C39
100
AcDbXrecord
280
     1
  1
SIAG
  1
*3SIAG
  1
*
  1
*
 70
     0
  1
*
  1
*
  0
XRECORD
  5
D9E
102
{ACAD_REACTORS
330
C39
102
}
330
C39
100
AcDbXrecord
280
     1
  1
SIAG-N
  1
*3SIAG-N
  1
7
  1
*
 70
     0
  1
*
  1
*
  0
XRECORD
  5
D9F
102
{ACAD_REACTORS
330
C39
102
}
330
C39
100
AcDbXrecord
280
     1
  1
SIAG3
  1
*3SIAG3
  1
3
  1
*
 70
     0
  1
*
  1
*
  0
XRECORD
  5
DA0
102
{ACAD_REACTORS
330
C39
102
}
330
C39
100
AcDbXrecord
280
     1
  1
sin
  1
*SIN*
  1
*
  1
*
 70
     0
  1
*
  1
*
  0
XRECORD
  5
DA1
102
{ACAD_REACTORS
330
C39
102
}
330
C39
100
AcDbXrecord
280
     1
  1
Sinm
  1
*-Sinm*
  1
*
  1
*
 70
     0
  1
*
  1
*
  0
XRECORD
  5
DA2
102
{ACAD_REACTORS
330
C39
102
}
330
C39
100
AcDbXrecord
280
     1
  1
SITA
  1
*3SITA
  1
*
  1
*
 70
     0
  1
*
  1
*
  0
XRECORD
  5
DA3
102
{ACAD_REACTORS
330
C39
102
}
330
C39
100
AcDbXrecord
280
     1
  1
siyah
  1
*
  1
*
  1
*
 70
     4
  1
*
  1
siyah
  0
XRECORD
  5
DA4
102
{ACAD_REACTORS
330
C39
102
}
330
C39
100
AcDbXrecord
280
     1
  1
SS
  1
*SS*
  1
*
  1
*
 70
     0
  1
*
  1
*
  0
XRECORD
  5
DA5
102
{ACAD_REACTORS
330
C39
102
}
330
C39
100
AcDbXrecord
280
     1
  1
ST
  1
*ST*
  1
*
  1
*
 70
     0
  1
*
  1
*
  0
XRECORD
  5
DA6
102
{ACAD_REACTORS
330
C39
102
}
330
C39
100
AcDbXrecord
280
     1
  1
STA
  1
STA*
  1
*
  1
*
 70
     0
  1
*
  1
*
  0
XRECORD
  5
DA7
102
{ACAD_REACTORS
330
C39
102
}
330
C39
100
AcDbXrecord
280
     1
  1
stairs
  1
*sta*
  1
*
  1
*
 70
     0
  1
*
  1
*
  0
XRECORD
  5
DA8
102
{ACAD_REACTORS
330
C39
102
}
330
C39
100
AcDbXrecord
280
     1
  1
SUGA5
  1
*4SUGA5
  1
5
  1
*
 70
     0
  1
*
  1
*
  0
XRECORD
  5
DA9
102
{ACAD_REACTORS
330
C39
102
}
330
C39
100
AcDbXrecord
280
     1
  1
SUNP
  1
*5SUNP100
  1
1
  1
*
 70
     0
  1
*
  1
*
  0
XRECORD
  5
DAA
102
{ACAD_REACTORS
330
C39
102
}
330
C39
100
AcDbXrecord
280
     1
  1
SUNP100
  1
*5SUNP100
  1
*
  1
*
 70
     0
  1
*
  1
*
  0
XRECORD
  5
DAB
102
{ACAD_REACTORS
330
C39
102
}
330
C39
100
AcDbXrecord
280
     1
  1
T
  1
T*
  1
*
  1
*
 70
     0
  1
*
  1
*
  0
XRECORD
  5
DAC
102
{ACAD_REACTORS
330
C39
102
}
330
C39
100
AcDbXrecord
280
     1
  1
TAKASA
  1
*
  1
2
  1
*
 70
     0
  1
*
  1
*
  0
XRECORD
  5
DAD
102
{ACAD_REACTORS
330
C39
102
}
330
C39
100
AcDbXrecord
280
     1
  1
TATE161
  1
*4TATE161
  1
161
  1
*
 70
     0
  1
*
  1
*
  0
XRECORD
  5
DAE
102
{ACAD_REACTORS
330
C39
102
}
330
C39
100
AcDbXrecord
280
     1
  1
TATEGU
  1
*TATEGU
  1
*
  1
*
 70
     0
  1
*
  1
*
  0
XRECORD
  5
DAF
102
{ACAD_REACTORS
330
C39
102
}
330
C39
100
AcDbXrecord
280
     1
  1
ten
  1
*ten*
  1
*
  1
*
 70
     0
  1
*
  1
*
  0
XRECORD
  5
DB0
102
{ACAD_REACTORS
330
C39
102
}
330
C39
100
AcDbXrecord
280
     1
  1
TENJYOU
  1
C-*
  1
*
  1
*
 70
     0
  1
*
  1
*
  0
XRECORD
  5
DB1
102
{ACAD_REACTORS
330
C39
102
}
330
C39
100
AcDbXrecord
280
     1
  1
TENJYOUNAI
  1
CI-*
  1
*
  1
*
 70
     0
  1
*
  1
*
  0
XRECORD
  5
DB2
102
{ACAD_REACTORS
330
C39
102
}
330
C39
100
AcDbXrecord
280
     1
  1
test
  1
keyplan
  1
*
  1
*
 70
     0
  1
*
  1
*
  0
XRECORD
  5
DB3
102
{ACAD_REACTORS
330
C39
102
}
330
C39
100
AcDbXrecord
280
     1
  1
text
  1
*text*
  1
*
  1
*
 70
     0
  1
*
  1
*
  0
XRECORD
  5
DB4
102
{ACAD_REACTORS
330
C39
102
}
330
C39
100
AcDbXrecord
280
     1
  1
thaw
  1
*
  1
*
  1
*
 70
    12
  1
*
  1
*
  0
XRECORD
  5
DB5
102
{ACAD_REACTORS
330
C39
102
}
330
C39
100
AcDbXrecord
280
     1
  1
TITL
  1
*8TITL
  1
4
  1
*
 70
     0
  1
*
  1
*
  0
XRECORD
  5
DB6
102
{ACAD_REACTORS
330
C39
102
}
330
C39
100
AcDbXrecord
280
     1
  1
tnjyou
  1
c-*
  1
*
  1
*
 70
     0
  1
*
  1
*
  0
XRECORD
  5
DB7
102
{ACAD_REACTORS
330
C39
102
}
330
C39
100
AcDbXrecord
280
     1
  1
tori
  1
*A11
  1
*
  1
*
 70
     0
  1
*
  1
*
  0
XRECORD
  5
DB8
102
{ACAD_REACTORS
330
C39
102
}
330
C39
100
AcDbXrecord
280
     1
  1
TORISHIN
  1
*A11
  1
*
  1
*
 70
     0
  1
*
  1
*
  0
XRECORD
  5
DB9
102
{ACAD_REACTORS
330
C39
102
}
330
C39
100
AcDbXrecord
280
     1
  1
tr
  1
*tr*
  1
*
  1
*
 70
     0
  1
*
  1
*
  0
XRECORD
  5
DBA
102
{ACAD_REACTORS
330
C39
102
}
330
C39
100
AcDbXrecord
280
     1
  1
TSIN
  1
*2TSIN
  1
*
  1
*
 70
     0
  1
*
  1
*
  0
XRECORD
  5
DBB
102
{ACAD_REACTORS
330
C39
102
}
330
C39
100
AcDbXrecord
280
     1
  1
TXT
  1
*TX*
  1
*
  1
*
 70
     0
  1
*
  1
*
  0
XRECORD
  5
DBC
102
{ACAD_REACTORS
330
C39
102
}
330
C39
100
AcDbXrecord
280
     1
  1
UNFREEZ
  1
*
  1
*
  1
*
 70
    12
  1
*
  1
*
  0
XRECORD
  5
DBD
102
{ACAD_REACTORS
330
C39
102
}
330
C39
100
AcDbXrecord
280
     1
  1
UNROCK
  1
*
  1
*
  1
*
 70
   768
  1
*
  1
*
  0
XRECORD
  5
DBE
102
{ACAD_REACTORS
330
C39
102
}
330
C39
100
AcDbXrecord
280
     1
  1
wada
  1
*
  1
*
  1
*
 70
     0
  1
*
  1
*
  0
XRECORD
  5
DBF
102
{ACAD_REACTORS
330
C39
102
}
330
C39
100
AcDbXrecord
280
     1
  1
waku
  1
waku
  1
*
  1
*
 70
     0
  1
*
  1
*
  0
XRECORD
  5
DC0
102
{ACAD_REACTORS
330
C39
102
}
330
C39
100
AcDbXrecord
280
     1
  1
X
  1
*$*$*
  1
*
  1
*
 70
     0
  1
*
  1
*
  0
XRECORD
  5
DC1
102
{ACAD_REACTORS
330
C39
102
}
330
C39
100
AcDbXrecord
280
     1
  1
X(敷地)を表示
  1
X*
  1
*
  1
*
 70
     0
  1
*
  1
*
  0
XRECORD
  5
DC2
102
{ACAD_REACTORS
330
C39
102
}
330
C39
100
AcDbXrecord
280
     1
  1
xref
  1
ground*
  1
*
  1
*
 70
     0
  1
*
  1
*
  0
XRECORD
  5
DC3
102
{ACAD_REACTORS
330
C39
102
}
330
C39
100
AcDbXrecord
280
     1
  1
YAJI
  1
*YAJI*
  1
*
  1
*
 70
     0
  1
*
  1
*
  0
XRECORD
  5
DC4
102
{ACAD_REACTORS
330
C39
102
}
330
C39
100
AcDbXrecord
280
     1
  1
yellow
  1
*
  1
yellow
  1
*
 70
     0
  1
*
  1
*
  0
XRECORD
  5
DC5
102
{ACAD_REACTORS
330
C39
102
}
330
C39
100
AcDbXrecord
280
     1
  1
YUKA
  1
F-*
  1
*
  1
*
 70
     0
  1
*
  1
*
  0
XRECORD
  5
DC6
102
{ACAD_REACTORS
330
C39
102
}
330
C39
100
AcDbXrecord
280
     1
  1
yその他
  1
y*
  1
*
  1
*
 70
     0
  1
*
  1
*
  0
XRECORD
  5
DC7
102
{ACAD_REACTORS
330
C39
102
}
330
C39
100
AcDbXrecord
280
     1
  1
Z
  1
Z*
  1
*
  1
*
 70
     0
  1
*
  1
*
  0
XRECORD
  5
DC8
102
{ACAD_REACTORS
330
C39
102
}
330
C39
100
AcDbXrecord
280
     1
  1
ZATU
  1
*ZATU
  1
*
  1
*
 70
     0
  1
*
  1
*
  0
XRECORD
  5
DC9
102
{ACAD_REACTORS
330
C39
102
}
330
C39
100
AcDbXrecord
280
     1
  1
z図枠
  1
z*
  1
*
  1
*
 70
     0
  1
*
  1
*
  0
XRECORD
  5
DCA
102
{ACAD_REACTORS
330
C39
102
}
330
C39
100
AcDbXrecord
280
     1
  1
к
  1
к-*
  1
*
  1
*
 70
     0
  1
*
  1
*
  0
XRECORD
  5
DCB
102
{ACAD_REACTORS
330
C39
102
}
330
C39
100
AcDbXrecord
280
     1
  1
перегородки
  1
*перегород*
  1
*
  1
*
 70
     0
  1
*
  1
*
  0
XRECORD
  5
DCC
102
{ACAD_REACTORS
330
C39
102
}
330
C39
100
AcDbXrecord
280
     1
  1
イベント給水
  1
*い*
  1
*
  1
*
 70
     0
  1
*
  1
*
  0
XRECORD
  5
DCD
102
{ACAD_REACTORS
330
C39
102
}
330
C39
100
AcDbXrecord
280
     1
  1
ガラス
  1
*HMOJI
  1
*
  1
*
 70
     0
  1
*
  1
*
  0
XRECORD
  5
DCE
102
{ACAD_REACTORS
330
C39
102
}
330
C39
100
AcDbXrecord
280
     1
  1
キ-プラン
  1
*HMOJI,*HOJO2,*HOJO4,*SINSEI
  1
*
  1
*
 70
     0
  1
*
  1
*
  0
XRECORD
  5
DCF
102
{ACAD_REACTORS
330
C39
102
}
330
C39
100
AcDbXrecord
280
     1
  1
キープラン
  1
キープラン*
  1
*
  1
*
 70
     0
  1
*
  1
*
  0
XRECORD
  5
DD0
102
{ACAD_REACTORS
330
C39
102
}
330
C39
100
AcDbXrecord
280
     1
  1
さーくる
  1
*
  1
*
  1
*
 70
     0
  1
*
  1
*
  0
XRECORD
  5
DD1
102
{ACAD_REACTORS
330
C39
102
}
330
C39
100
AcDbXrecord
280
     1
  1
シェルター
  1
シェルター*
  1
*
  1
*
 70
     0
  1
*
  1
*
  0
XRECORD
  5
DD2
102
{ACAD_REACTORS
330
C39
102
}
330
C39
100
AcDbXrecord
280
     1
  1
すべてに反映
  1
*す*
  1
*
  1
*
 70
     0
  1
*
  1
*
  0
XRECORD
  5
DD3
102
{ACAD_REACTORS
330
C39
102
}
330
C39
100
AcDbXrecord
280
     1
  1
スロープ
  1
SL*
  1
*
  1
*
 70
     0
  1
*
  1
*
  0
XRECORD
  5
DD4
102
{ACAD_REACTORS
330
C39
102
}
330
C39
100
AcDbXrecord
280
     1
  1
タイル割付平面図
  1
タイル*
  1
*
  1
*
 70
     0
  1
*
  1
*
  0
XRECORD
  5
DD5
102
{ACAD_REACTORS
330
C39
102
}
330
C39
100
AcDbXrecord
280
     1
  1
ﾃｷｽﾄのみ表示
  1
*NZ5-TEXT
  1
*
  1
*
 70
     0
  1
*
  1
*
  0
XRECORD
  5
DD6
102
{ACAD_REACTORS
330
C39
102
}
330
C39
100
AcDbXrecord
280
     1
  1
ハッチング
  1
*ハッチング
  1
*
  1
*
 70
     0
  1
*
  1
*
  0
XRECORD
  5
DD7
102
{ACAD_REACTORS
330
C39
102
}
330
C39
100
AcDbXrecord
280
     1
  1
フリーズ
  1
*
  1
*
  1
*
 70
     4
  1
*
  1
*
  0
XRECORD
  5
DD8
102
{ACAD_REACTORS
330
C39
102
}
330
C39
100
AcDbXrecord
280
     1
  1
フリーズof
  1
*
  1
*
  1
*
 70
    12
  1
*
  1
*
  0
XRECORD
  5
DD9
102
{ACAD_REACTORS
330
C39
102
}
330
C39
100
AcDbXrecord
280
     1
  1
ﾌﾘｰｽﾞ画層非表示
  1
*
  1
*
  1
*
 70
    12
  1
*
  1
*
  0
XRECORD
  5
DDA
102
{ACAD_REACTORS
330
C39
102
}
330
C39
100
AcDbXrecord
280
     1
  1
ﾌﾘｰｽﾞ画面非表示
  1
*
  1
*
  1
*
 70
    12
  1
*
  1
*
  0
XRECORD
  5
DDB
102
{ACAD_REACTORS
330
C39
102
}
330
C39
100
AcDbXrecord
280
     1
  1
ﾌﾘｰｽﾞ解除
  1
*
  1
*
  1
*
 70
    12
  1
*
  1
*
  0
XRECORD
  5
DDC
102
{ACAD_REACTORS
330
C39
102
}
330
C39
100
AcDbXrecord
280
     1
  1
フリーズ解除
  1
*
  1
*
  1
*
 70
    12
  1
*
  1
*
  0
XRECORD
  5
DDD
102
{ACAD_REACTORS
330
C39
102
}
330
C39
100
AcDbXrecord
280
     1
  1
ﾌﾟﾚｾﾞﾝ枠
  1
*|ﾌﾟﾚｾﾞﾝ枠
  1
*
  1
*
 70
     0
  1
*
  1
*
  0
XRECORD
  5
DDE
102
{ACAD_REACTORS
330
C39
102
}
330
C39
100
AcDbXrecord
280
     1
  1
マーク
  1
*マーク
  1
*
  1
*
 70
     0
  1
*
  1
*
  0
XRECORD
  5
DDF
102
{ACAD_REACTORS
330
C39
102
}
330
C39
100
AcDbXrecord
280
     1
  1
ﾒｲﾝﾌﾟﾗｻﾞ
  1
*め*
  1
*
  1
*
 70
     0
  1
*
  1
*
  0
XRECORD
  5
DE0
102
{ACAD_REACTORS
330
C39
102
}
330
C39
100
AcDbXrecord
280
     1
  1
レベル
  1
*た*
  1
*
  1
*
 70
     0
  1
*
  1
*
  0
XRECORD
  5
DE1
102
{ACAD_REACTORS
330
C39
102
}
330
C39
100
AcDbXrecord
280
     1
  1
ロック
  1
*
  1
*
  1
*
 70
   256
  1
*
  1
*
  0
XRECORD
  5
DE2
102
{ACAD_REACTORS
330
C39
102
}
330
C39
100
AcDbXrecord
280
     1
  1
一括非表示
  1
*
  1
*
  1
*
 70
     3
  1
*
  1
*
  0
XRECORD
  5
DE3
102
{ACAD_REACTORS
330
C39
102
}
330
C39
100
AcDbXrecord
280
     1
  1
一般図
  1
hatch
  1
*
  1
*
 70
     7
  1
*
  1
*
  0
XRECORD
  5
DE4
102
{ACAD_REACTORS
330
C39
102
}
330
C39
100
AcDbXrecord
280
     1
  1
印刷
  1
*
  1
*
  1
*
 70
    13
  1
*
  1
*
  0
XRECORD
  5
DE5
102
{ACAD_REACTORS
330
C39
102
}
330
C39
100
AcDbXrecord
280
     1
  1
荏原機器
  1
KIKI*
  1
*
  1
*
 70
     0
  1
*
  1
*
  0
XRECORD
  5
DE6
102
{ACAD_REACTORS
330
C39
102
}
330
C39
100
AcDbXrecord
280
     1
  1
荏原機器基礎
  1
a3*,KIKI*,text*,stage,矢視記号
  1
*
  1
*
 70
     0
  1
*
  1
*
  0
XRECORD
  5
DE7
102
{ACAD_REACTORS
330
C39
102
}
330
C39
100
AcDbXrecord
280
     1
  1
衛生設備図
  1
001*,002*,004*,005*,007*,010*,039*,040*,041*,042*,043*
  1
*
  1
*
 70
     0
  1
*
  1
*
  0
XRECORD
  5
DE8
102
{ACAD_REACTORS
330
C39
102
}
330
C39
100
AcDbXrecord
280
     1
  1
黄色
  1
*
  1
YELLOW
  1
*
 70
     0
  1
*
  1
*
  0
XRECORD
  5
DE9
102
{ACAD_REACTORS
330
C39
102
}
330
C39
100
AcDbXrecord
280
     1
  1
下階
  1
下階*
  1
*
  1
*
 70
     0
  1
*
  1
*
  0
XRECORD
  5
DEA
102
{ACAD_REACTORS
330
C39
102
}
330
C39
100
AcDbXrecord
280
     1
  1
下地
  1
*-下
  1
*
  1
*
 70
     0
  1
*
  1
*
  0
XRECORD
  5
DEB
102
{ACAD_REACTORS
330
C39
102
}
330
C39
100
AcDbXrecord
280
     1
  1
外構
  1
外構*
  1
*
  1
*
 70
     0
  1
*
  1
*
  0
XRECORD
  5
DEC
102
{ACAD_REACTORS
330
C39
102
}
330
C39
100
AcDbXrecord
280
     1
  1
外部参照－建築
  1
A*
  1
9
  1
*
 70
     0
  1
*
  1
*
  0
XRECORD
  5
DED
102
{ACAD_REACTORS
330
C39
102
}
330
C39
100
AcDbXrecord
280
     1
  1
外部参照除く
  1
A*
  1
*
  1
*
 70
     0
  1
*
  1
*
  0
XRECORD
  5
DEE
102
{ACAD_REACTORS
330
C39
102
}
330
C39
100
AcDbXrecord
280
     1
  1
割り付け平面図
  1
*わ*
  1
*
  1
*
 70
     0
  1
*
  1
*
  0
XRECORD
  5
DEF
102
{ACAD_REACTORS
330
C39
102
}
330
C39
100
AcDbXrecord
280
     1
  1
割付平面図
  1
*わ*
  1
*
  1
*
 70
     0
  1
*
  1
*
  0
XRECORD
  5
DF0
102
{ACAD_REACTORS
330
C39
102
}
330
C39
100
AcDbXrecord
280
     1
  1
潅水平面
  1
*か*
  1
*
  1
*
 70
     0
  1
*
  1
*
  0
XRECORD
  5
DF1
102
{ACAD_REACTORS
330
C39
102
}
330
C39
100
AcDbXrecord
280
     1
  1
基
  1
*_基
  1
*
  1
*
 70
     0
  1
*
  1
*
  0
XRECORD
  5
DF2
102
{ACAD_REACTORS
330
C39
102
}
330
C39
100
AcDbXrecord
280
     1
  1
基準
  1
基*
  1
*
  1
*
 70
     0
  1
*
  1
*
  0
XRECORD
  5
DF3
102
{ACAD_REACTORS
330
C39
102
}
330
C39
100
AcDbXrecord
280
     1
  1
基準階
  1
*基準*
  1
*
  1
*
 70
     0
  1
*
  1
*
  0
XRECORD
  5
DF4
102
{ACAD_REACTORS
330
C39
102
}
330
C39
100
AcDbXrecord
280
     1
  1
基礎OFF
  1
+*
  1
*
  1
*
 70
     0
  1
*
  1
*
  0
XRECORD
  5
DF5
102
{ACAD_REACTORS
330
C39
102
}
330
C39
100
AcDbXrecord
280
     1
  1
基礎伏
  1
*
  1
*
  1
*
 70
     0
  1
*
  1
*
  0
XRECORD
  5
DF6
102
{ACAD_REACTORS
330
C39
102
}
330
C39
100
AcDbXrecord
280
     1
  1
基礎伏図
  1
SIZE,HOJO,ZATU,HATCH,GL-HARI,GL-HASIRA,KISO,KUI,MOJI-K1,GL-FUGO,SUNPO-K1,SUNPO,SUNPO2,SUNPO1,KIJUN3,KIJUN,SIZE
  1
*
  1
*
 70
     0
  1
*
  1
*
  0
XRECORD
  5
DF7
102
{ACAD_REACTORS
330
C39
102
}
330
C39
100
AcDbXrecord
280
     1
  1
基盤改良平面図
  1
*き*
  1
*
  1
*
 70
     0
  1
*
  1
*
  0
XRECORD
  5
DF8
102
{ACAD_REACTORS
330
C39
102
}
330
C39
100
AcDbXrecord
280
     1
  1
既存杭
  1
既存杭*
  1
*
  1
*
 70
     0
  1
*
  1
*
  0
XRECORD
  5
DF9
102
{ACAD_REACTORS
330
C39
102
}
330
C39
100
AcDbXrecord
280
     1
  1
機器
  1
KIKI*
  1
*
  1
*
 70
     0
  1
*
  1
*
  0
XRECORD
  5
DFA
102
{ACAD_REACTORS
330
C39
102
}
330
C39
100
AcDbXrecord
280
     1
  1
機器基礎
  1
a3*,KIKI*,text*,stage,矢視記号
  1
*
  1
*
 70
     0
  1
*
  1
*
  0
XRECORD
  5
DFB
102
{ACAD_REACTORS
330
C39
102
}
330
C39
100
AcDbXrecord
280
     1
  1
記号
  1
*記号
  1
*
  1
*
 70
     0
  1
*
  1
*
  0
XRECORD
  5
DFC
102
{ACAD_REACTORS
330
C39
102
}
330
C39
100
AcDbXrecord
280
     1
  1
給水設備平面図
  1
*み*
  1
*
  1
*
 70
     0
  1
*
  1
*
  0
XRECORD
  5
DFD
102
{ACAD_REACTORS
330
C39
102
}
330
C39
100
AcDbXrecord
280
     1
  1
給水平面
  1
*き*
  1
*
  1
*
 70
     0
  1
*
  1
*
  0
XRECORD
  5
DFE
102
{ACAD_REACTORS
330
C39
102
}
330
C39
100
AcDbXrecord
280
     1
  1
区画
  1
区画*
  1
*
  1
*
 70
     0
  1
*
  1
*
  0
XRECORD
  5
DFF
102
{ACAD_REACTORS
330
C39
102
}
330
C39
100
AcDbXrecord
280
     1
  1
躯体
  1
*A21*
  1
*
  1
*
 70
     0
  1
*
  1
*
  0
XRECORD
  5
E00
102
{ACAD_REACTORS
330
C39
102
}
330
C39
100
AcDbXrecord
280
     1
  1
躯体図
  1
D*
  1
*
  1
*
 70
     0
  1
*
  1
*
  0
XRECORD
  5
E01
102
{ACAD_REACTORS
330
C39
102
}
330
C39
100
AcDbXrecord
280
     1
  1
空調jv
  1
00i*
  1
*
  1
*
 70
     0
  1
*
  1
*
  0
XRECORD
  5
E02
102
{ACAD_REACTORS
330
C39
102
}
330
C39
100
AcDbXrecord
280
     1
  1
空調設備図
  1
001*,002*,004*,005*,007*,010*,033*,034*,035*,036*,037*,038*
  1
*
  1
*
 70
     0
  1
*
  1
*
  0
XRECORD
  5
E03
102
{ACAD_REACTORS
330
C39
102
}
330
C39
100
AcDbXrecord
280
     1
  1
郡川
  1
kijun,kabe,sunpo
  1
*
  1
*
 70
     3
  1
*
  1
*
  0
XRECORD
  5
E04
102
{ACAD_REACTORS
330
C39
102
}
330
C39
100
AcDbXrecord
280
     1
  1
型枠計画図
  1
001*,002*,003*,004*,005*,006*,007*,010*,012*,050*,051*,055*,056*,057*,058*,059*,060*,061*,062*,063*,064*,065*,066*,067*,068*,069*,070*,071*,072*,073*,074*,075*
  1
*
  1
*
 70
     0
  1
*
  1
*
  0
XRECORD
  5
E05
102
{ACAD_REACTORS
330
C39
102
}
330
C39
100
AcDbXrecord
280
     1
  1
計画高平面図
  1
*く*
  1
*
  1
*
 70
     0
  1
*
  1
*
  0
XRECORD
  5
E06
102
{ACAD_REACTORS
330
C39
102
}
330
C39
100
AcDbXrecord
280
     1
  1
計画平面
  1
*け*
  1
*
  1
*
 70
     0
  1
*
  1
*
  0
XRECORD
  5
E07
102
{ACAD_REACTORS
330
C39
102
}
330
C39
100
AcDbXrecord
280
     1
  1
計画平面図
  1
*け*
  1
*
  1
*
 70
     0
  1
*
  1
*
  0
XRECORD
  5
E08
102
{ACAD_REACTORS
330
C39
102
}
330
C39
100
AcDbXrecord
280
     1
  1
劇場ﾌﾟﾗｻﾞ
  1
*え*
  1
*
  1
*
 70
     0
  1
*
  1
*
  0
XRECORD
  5
E09
102
{ACAD_REACTORS
330
C39
102
}
330
C39
100
AcDbXrecord
280
     1
  1
劇場棟
  1
*げ*
  1
*
  1
*
 70
     0
  1
*
  1
*
  0
XRECORD
  5
E0A
102
{ACAD_REACTORS
330
C39
102
}
330
C39
100
AcDbXrecord
280
     1
  1
建具
  1
*-建
  1
*
  1
*
 70
     0
  1
*
  1
*
  0
XRECORD
  5
E0B
102
{ACAD_REACTORS
330
C39
102
}
330
C39
100
AcDbXrecord
280
     1
  1
建築接地図
  1
A01*
  1
*
  1
*
 70
     0
  1
*
  1
*
  0
XRECORD
  5
E0C
102
{ACAD_REACTORS
330
C39
102
}
330
C39
100
AcDbXrecord
280
     1
  1
見上げ
  1
*U
  1
*
  1
*
 70
     0
  1
*
  1
*
  0
XRECORD
  5
E0D
102
{ACAD_REACTORS
330
C39
102
}
330
C39
100
AcDbXrecord
280
     1
  1
現在非表示画層
  1
*
  1
*
  1
*
 70
     3
  1
*
  1
*
  0
XRECORD
  5
E0E
102
{ACAD_REACTORS
330
C39
102
}
330
C39
100
AcDbXrecord
280
     1
  1
光天井
  1
*-光
  1
*
  1
*
 70
     0
  1
*
  1
*
  0
XRECORD
  5
E0F
102
{ACAD_REACTORS
330
C39
102
}
330
C39
100
AcDbXrecord
280
     1
  1
公園
  1
K*
  1
*
  1
*
 70
     0
  1
*
  1
*
  0
XRECORD
  5
E10
102
{ACAD_REACTORS
330
C39
102
}
330
C39
100
AcDbXrecord
280
     1
  1
工事区分図
  1
*じ*
  1
*
  1
*
 70
     0
  1
*
  1
*
  0
XRECORD
  5
E11
102
{ACAD_REACTORS
330
C39
102
}
330
C39
100
AcDbXrecord
280
     1
  1
工事区分図AB
  1
*α*
  1
*
  1
*
 70
     0
  1
*
  1
*
  0
XRECORD
  5
E12
102
{ACAD_REACTORS
330
C39
102
}
330
C39
100
AcDbXrecord
280
     1
  1
工事区分図CD
  1
*β*
  1
*
  1
*
 70
     0
  1
*
  1
*
  0
XRECORD
  5
E13
102
{ACAD_REACTORS
330
C39
102
}
330
C39
100
AcDbXrecord
280
     1
  1
高さ
  1
204-TEXT,東西道路*
  1
*
  1
*
 70
     0
  1
*
  1
*
  0
XRECORD
  5
E14
102
{ACAD_REACTORS
330
C39
102
}
330
C39
100
AcDbXrecord
280
     1
  1
高木植栽平面
  1
*こ*
  1
*
  1
*
 70
     0
  1
*
  1
*
  0
XRECORD
  5
E15
102
{ACAD_REACTORS
330
C39
102
}
330
C39
100
AcDbXrecord
280
     1
  1
高木平面図
  1
*こ*
  1
*
  1
*
 70
     0
  1
*
  1
*
  0
XRECORD
  5
E16
102
{ACAD_REACTORS
330
C39
102
}
330
C39
100
AcDbXrecord
280
     1
  1
座席のみ
  1
*
  1
*
  1
*
 70
     0
  1
*
  1
*
  0
XRECORD
  5
E17
102
{ACAD_REACTORS
330
C39
102
}
330
C39
100
AcDbXrecord
280
     1
  1
作業
  1
100-*,地区*,
  1
*
  1
*
 70
     1
  1
*
  1
*
  0
XRECORD
  5
E18
102
{ACAD_REACTORS
330
C39
102
}
330
C39
100
AcDbXrecord
280
     1
  1
参考
  1
六*
  1
*
  1
*
 70
     0
  1
*
  1
*
  0
XRECORD
  5
E19
102
{ACAD_REACTORS
330
C39
102
}
330
C39
100
AcDbXrecord
280
     1
  1
山止根切計画図
  1
001*,002*,003*,004*,005*,007*,012*,049*,050*,051*,052*,053*,054*,055*,056*,057*,058*,059*,060*,061*,062*,064*,065*,066*,067*,068*,069*,070*,071*,072*,073*,074*,075*
  1
*
  1
*
 70
     0
  1
*
  1
*
  0
XRECORD
  5
E1A
102
{ACAD_REACTORS
330
C39
102
}
330
C39
100
AcDbXrecord
280
     1
  1
仕
  1
*_仕
  1
*
  1
*
 70
     0
  1
*
  1
*
  0
XRECORD
  5
E1B
102
{ACAD_REACTORS
330
C39
102
}
330
C39
100
AcDbXrecord
280
     1
  1
仕上
  1
*-2
  1
*
  1
*
 70
     0
  1
*
  1
*
  0
XRECORD
  5
E1C
102
{ACAD_REACTORS
330
C39
102
}
330
C39
100
AcDbXrecord
280
     1
  1
仕上図
  1
C*
  1
*
  1
*
 70
     0
  1
*
  1
*
  0
XRECORD
  5
E1D
102
{ACAD_REACTORS
330
C39
102
}
330
C39
100
AcDbXrecord
280
     1
  1
使用中
  1
使用中
  1
*
  1
*
 70
     1
  1
*
  1
*
  0
XRECORD
  5
E1E
102
{ACAD_REACTORS
330
C39
102
}
330
C39
100
AcDbXrecord
280
     1
  1
施設配置図
  1
*し*
  1
*
  1
*
 70
     0
  1
*
  1
*
  0
XRECORD
  5
E1F
102
{ACAD_REACTORS
330
C39
102
}
330
C39
100
AcDbXrecord
280
     1
  1
施設平面
  1
*し*
  1
*
  1
*
 70
     0
  1
*
  1
*
  0
XRECORD
  5
E20
102
{ACAD_REACTORS
330
C39
102
}
330
C39
100
AcDbXrecord
280
     1
  1
施設平面図
  1
*し*
  1
*
  1
*
 70
     0
  1
*
  1
*
  0
XRECORD
  5
E21
102
{ACAD_REACTORS
330
C39
102
}
330
C39
100
AcDbXrecord
280
     1
  1
紫
  1
*
  1
Magenta
  1
*
 70
     0
  1
*
  1
*
  0
XRECORD
  5
E22
102
{ACAD_REACTORS
330
C39
102
}
330
C39
100
AcDbXrecord
280
     1
  1
床伏図
  1
*U*,20,Z20,Z22,Z23
  1
*
  1
*
 70
     0
  1
*
  1
*
  0
XRECORD
  5
E23
102
{ACAD_REACTORS
330
C39
102
}
330
C39
100
AcDbXrecord
280
     1
  1
昇降機
  1
T*
  1
*
  1
*
 70
     0
  1
*
  1
*
  0
XRECORD
  5
E24
102
{ACAD_REACTORS
330
C39
102
}
330
C39
100
AcDbXrecord
280
     1
  1
照明
  1
*ら*,*れ*
  1
*
  1
*
 70
     0
  1
*
  1
*
  0
XRECORD
  5
E25
102
{ACAD_REACTORS
330
C39
102
}
330
C39
100
AcDbXrecord
280
     1
  1
照明Ｃ１
  1
*ら*
  1
*
  1
*
 70
     0
  1
*
  1
*
  0
XRECORD
  5
E26
102
{ACAD_REACTORS
330
C39
102
}
330
C39
100
AcDbXrecord
280
     1
  1
照明Ｃ２
  1
*れ*
  1
*
  1
*
 70
     0
  1
*
  1
*
  0
XRECORD
  5
E27
102
{ACAD_REACTORS
330
C39
102
}
330
C39
100
AcDbXrecord
280
     1
  1
照明配置図
  1
*め*
  1
*
  1
*
 70
     0
  1
*
  1
*
  0
XRECORD
  5
E28
102
{ACAD_REACTORS
330
C39
102
}
330
C39
100
AcDbXrecord
280
     1
  1
詳細
  1
詳細*
  1
*
  1
*
 70
     0
  1
*
  1
*
  0
XRECORD
  5
E29
102
{ACAD_REACTORS
330
C39
102
}
330
C39
100
AcDbXrecord
280
     1
  1
詳細図
  1
*u*,*w*,*y*,*x*,*s*,*V*,06
  1
*
  1
*
 70
     0
  1
*
  1
*
  0
XRECORD
  5
E2A
102
{ACAD_REACTORS
330
C39
102
}
330
C39
100
AcDbXrecord
280
     1
  1
上階躯体図
  1
KUTAI-Z,SIZE,HOJO,ZATU,HATCH,BR-S,KABE2,KABE,MAJIKIRI,KOBARI-S,KOBARI-R,HARI-S,HARI-R,HASIRA-S,HASIRA-R,MOJI-K2,FL-FUGO,FUGO-W,SUNPO-K2,SUNPO,SUNPO2,SUNPO1,KIJUN2,KIJUN1,KIJUN,
  1
*
  1
*
 70
     0
  1
*
  1
*
  0
XRECORD
  5
E2B
102
{ACAD_REACTORS
330
C39
102
}
330
C39
100
AcDbXrecord
280
     1
  1
植栽
  1
*木*
  1
*
  1
*
 70
     0
  1
*
  1
*
  0
XRECORD
  5
E2C
102
{ACAD_REACTORS
330
C39
102
}
330
C39
100
AcDbXrecord
280
     1
  1
植栽基盤平面
  1
*ど*
  1
*
  1
*
 70
     0
  1
*
  1
*
  0
XRECORD
  5
E2D
102
{ACAD_REACTORS
330
C39
102
}
330
C39
100
AcDbXrecord
280
     1
  1
植栽現況
  1
*植*
  1
*
  1
*
 70
     0
  1
*
  1
*
  0
XRECORD
  5
E2E
102
{ACAD_REACTORS
330
C39
102
}
330
C39
100
AcDbXrecord
280
     1
  1
植栽高木AB
  1
*λ*
  1
*
  1
*
 70
     0
  1
*
  1
*
  0
XRECORD
  5
E2F
102
{ACAD_REACTORS
330
C39
102
}
330
C39
100
AcDbXrecord
280
     1
  1
植栽高木CD
  1
*ｑ*
  1
*
  1
*
 70
     0
  1
*
  1
*
  0
XRECORD
  5
E30
102
{ACAD_REACTORS
330
C39
102
}
330
C39
100
AcDbXrecord
280
     1
  1
植栽低木AB
  1
*γ*
  1
*
  1
*
 70
     0
  1
*
  1
*
  0
XRECORD
  5
E31
102
{ACAD_REACTORS
330
C39
102
}
330
C39
100
AcDbXrecord
280
     1
  1
植栽低木ＣＤ
  1
*Θ*
  1
*
  1
*
 70
     0
  1
*
  1
*
  0
XRECORD
  5
E32
102
{ACAD_REACTORS
330
C39
102
}
330
C39
100
AcDbXrecord
280
     1
  1
色番号8
  1
*
  1
8
  1
*
 70
     0
  1
*
  1
*
  0
XRECORD
  5
E33
102
{ACAD_REACTORS
330
C39
102
}
330
C39
100
AcDbXrecord
280
     1
  1
申請用
  1
*あ*,*き*,*グ*,*み*,*オ*,*ピ*,*92*
  1
*
  1
*
 70
     0
  1
*
  1
*
  0
XRECORD
  5
E34
102
{ACAD_REACTORS
330
C39
102
}
330
C39
100
AcDbXrecord
280
     1
  1
芯
  1
*芯
  1
*
  1
*
 70
     0
  1
*
  1
*
  0
XRECORD
  5
E35
102
{ACAD_REACTORS
330
C39
102
}
330
C39
100
AcDbXrecord
280
     1
  1
芯関係
  1
001*,002*,032*
  1
*
  1
*
 70
     0
  1
*
  1
*
  0
XRECORD
  5
E36
102
{ACAD_REACTORS
330
C39
102
}
330
C39
100
AcDbXrecord
280
     1
  1
水
  1
*
  1
cyan
  1
*
 70
     0
  1
*
  1
*
  0
XRECORD
  5
E37
102
{ACAD_REACTORS
330
C39
102
}
330
C39
100
AcDbXrecord
280
     1
  1
水色
  1
*
  1
Cyan
  1
*
 70
     0
  1
*
  1
*
  0
XRECORD
  5
E38
102
{ACAD_REACTORS
330
C39
102
}
330
C39
100
AcDbXrecord
280
     1
  1
寸法
  1
*寸法
  1
*
  1
*
 70
     0
  1
*
  1
*
  0
XRECORD
  5
E39
102
{ACAD_REACTORS
330
C39
102
}
330
C39
100
AcDbXrecord
280
     1
  1
製作
  1
B*
  1
*
  1
*
 70
     0
  1
*
  1
*
  0
XRECORD
  5
E3A
102
{ACAD_REACTORS
330
C39
102
}
330
C39
100
AcDbXrecord
280
     1
  1
製作-躯体
  1
BS*
  1
*
  1
*
 70
     0
  1
*
  1
*
  0
XRECORD
  5
E3B
102
{ACAD_REACTORS
330
C39
102
}
330
C39
100
AcDbXrecord
280
     1
  1
製作-建築
  1
BD*
  1
*
  1
*
 70
     0
  1
*
  1
*
  0
XRECORD
  5
E3C
102
{ACAD_REACTORS
330
C39
102
}
330
C39
100
AcDbXrecord
280
     1
  1
製作-昇降機
  1
BT*
  1
*
  1
*
 70
     0
  1
*
  1
*
  0
XRECORD
  5
E3D
102
{ACAD_REACTORS
330
C39
102
}
330
C39
100
AcDbXrecord
280
     1
  1
青
  1
*
  1
blue
  1
*
 70
     0
  1
*
  1
*
  0
XRECORD
  5
E3E
102
{ACAD_REACTORS
330
C39
102
}
330
C39
100
AcDbXrecord
280
     1
  1
設備
  1
E*,P*,M*
  1
*
  1
*
 70
     0
  1
*
  1
*
  0
XRECORD
  5
E3F
102
{ACAD_REACTORS
330
C39
102
}
330
C39
100
AcDbXrecord
280
     1
  1
設備プロット
  1
02*
  1
*
  1
*
 70
     0
  1
*
  1
*
  0
XRECORD
  5
E40
102
{ACAD_REACTORS
330
C39
102
}
330
C39
100
AcDbXrecord
280
     1
  1
全階平面図
  1
*
  1
*
  1
*
 70
     0
  1
*
  1
*
  0
XRECORD
  5
E41
102
{ACAD_REACTORS
330
C39
102
}
330
C39
100
AcDbXrecord
280
     1
  1
総合仮設図
  1
001*,002*,003*,004*,005*,007*,012*,015*,016*,017*,018*,019*,020*,021*,049*,050*,051*,052*,053*,054*,055*,056*,057*,058*,059*,060*,061*,062*,063*,064*,065*,066*,067*,068*,069*,070*,071*,072*,073*,074*,075*
  1
*
  1
*
 70
     0
  1
*
  1
*
  0
XRECORD
  5
E42
102
{ACAD_REACTORS
330
C39
102
}
330
C39
100
AcDbXrecord
280
     1
  1
総合図
  1
*z*,*u*,*w*,*y*,*x*,*V*,06
  1
*
  1
*
 70
     0
  1
*
  1
*
  0
XRECORD
  5
E43
102
{ACAD_REACTORS
330
C39
102
}
330
C39
100
AcDbXrecord
280
     1
  1
足場計画図
  1
001*,002*,003*,004*,005*,007*,012*,015*,049*,050*,051*,055*,056*,057*,058*,059*,060*,061*,062*,064*,065*,066*,067*,068*,069*,070*,071*,072*,073*,074*,075*
  1
*
  1
*
 70
     0
  1
*
  1
*
  0
XRECORD
  5
E44
102
{ACAD_REACTORS
330
C39
102
}
330
C39
100
AcDbXrecord
280
     1
  1
地下埋設
  1
*ち*
  1
*
  1
*
 70
     0
  1
*
  1
*
  0
XRECORD
  5
E45
102
{ACAD_REACTORS
330
C39
102
}
330
C39
100
AcDbXrecord
280
     1
  1
中野
  1
中野*
  1
*
  1
*
 70
     0
  1
*
  1
*
  0
XRECORD
  5
E46
102
{ACAD_REACTORS
330
C39
102
}
330
C39
100
AcDbXrecord
280
     1
  1
低木植栽平面
  1
*て*
  1
*
  1
*
 70
     0
  1
*
  1
*
  0
XRECORD
  5
E47
102
{ACAD_REACTORS
330
C39
102
}
330
C39
100
AcDbXrecord
280
     1
  1
低木平面図
  1
*て*
  1
*
  1
*
 70
     0
  1
*
  1
*
  0
XRECORD
  5
E48
102
{ACAD_REACTORS
330
C39
102
}
330
C39
100
AcDbXrecord
280
     1
  1
鉄骨
  1
*-1
  1
*
  1
*
 70
     0
  1
*
  1
*
  0
XRECORD
  5
E49
102
{ACAD_REACTORS
330
C39
102
}
330
C39
100
AcDbXrecord
280
     1
  1
鉄骨建方計画図
  1
001*,002*,003*,004*,005*,007*,012*,013*,049*,050*,051*,052*,053*,054*,055*,056*,057*,058*,059*,060*,061*,062*,063*,064*,065*,066*,067*,068*,069*,070*,071*,072*,073*,074*,075*
  1
*
  1
*
 70
     0
  1
*
  1
*
  0
XRECORD
  5
E4A
102
{ACAD_REACTORS
330
C39
102
}
330
C39
100
AcDbXrecord
280
     1
  1
天井インサート図
  1
001*,002*,004*,010*,022*,023*,024*,025*,026*,027*,028*,029*,037*,042*
  1
*
  1
*
 70
     0
  1
*
  1
*
  0
XRECORD
  5
E4B
102
{ACAD_REACTORS
330
C39
102
}
330
C39
100
AcDbXrecord
280
     1
  1
天井総合図
  1
001*,002*,004*,005*,007*,010*,022*,023*,024*,025*,026*,027*,028*,029*,030*,031*,033*,035*,036*,037*,039*,041*,042*,044*,046*,047*
  1
*
  1
*
 70
     0
  1
*
  1
*
  0
XRECORD
  5
E4C
102
{ACAD_REACTORS
330
C39
102
}
330
C39
100
AcDbXrecord
280
     1
  1
天井伏図
  1
0,00*,01*,03*,05*,1*,2*,3*,4*,7*,9*
  1
*
  1
*
 70
     0
  1
*
  1
*
  0
XRECORD
  5
E4D
102
{ACAD_REACTORS
330
C39
102
}
330
C39
100
AcDbXrecord
280
     1
  1
天伏
  1
*05
  1
*
  1
*
 70
     0
  1
*
  1
*
  0
XRECORD
  5
E4E
102
{ACAD_REACTORS
330
C39
102
}
330
C39
100
AcDbXrecord
280
     1
  1
電気設備図
  1
001*,002*,004*,005*,007*,010*,030*,031*,044*,045*,046*,047*,048*
  1
*
  1
*
 70
     0
  1
*
  1
*
  0
XRECORD
  5
E4F
102
{ACAD_REACTORS
330
C39
102
}
330
C39
100
AcDbXrecord
280
     1
  1
土壌改良
  1
*ど*
  1
*
  1
*
 70
     0
  1
*
  1
*
  0
XRECORD
  5
E50
102
{ACAD_REACTORS
330
C39
102
}
330
C39
100
AcDbXrecord
280
     1
  1
土木計画平面図
  1
*^ *,*B*,*0*,*排*,*法*,*ﾊ*,*b*
  1
*
  1
*
 70
     0
  1
*
  1
*
  0
XRECORD
  5
E51
102
{ACAD_REACTORS
330
C39
102
}
330
C39
100
AcDbXrecord
280
     1
  1
道路
  1
R*
  1
*
  1
*
 70
     0
  1
*
  1
*
  0
XRECORD
  5
E52
102
{ACAD_REACTORS
330
C39
102
}
330
C39
100
AcDbXrecord
280
     1
  1
道路関係図
  1
001*,002*,003*,004*,007*,012*,015*,016*,017*,018*,019*,020*,021*,049*,050*,051*,052*,053*,054*,055*,056*,057*,058*,059*,060*,061*,062*,063*,064*,065*,066*,067*,068*,069*,070*,071*,072*,073*,074*,075*
  1
*
  1
*
 70
     0
  1
*
  1
*
  0
XRECORD
  5
E53
102
{ACAD_REACTORS
330
C39
102
}
330
C39
100
AcDbXrecord
280
     1
  1
排水
  1
*は*
  1
*
  1
*
 70
     0
  1
*
  1
*
  0
XRECORD
  5
E54
102
{ACAD_REACTORS
330
C39
102
}
330
C39
100
AcDbXrecord
280
     1
  1
排水設備平面図
  1
*は*
  1
*
  1
*
 70
     0
  1
*
  1
*
  0
XRECORD
  5
E55
102
{ACAD_REACTORS
330
C39
102
}
330
C39
100
AcDbXrecord
280
     1
  1
排水平面
  1
*は*
  1
*
  1
*
 70
     0
  1
*
  1
*
  0
XRECORD
  5
E56
102
{ACAD_REACTORS
330
C39
102
}
330
C39
100
AcDbXrecord
280
     1
  1
配管
  1
PIPE*
  1
*
  1
*
 70
     0
  1
*
  1
*
  0
XRECORD
  5
E57
102
{ACAD_REACTORS
330
C39
102
}
330
C39
100
AcDbXrecord
280
     1
  1
非表示
  1
*
  1
*
  1
*
 70
     3
  1
*
  1
*
  0
XRECORD
  5
E58
102
{ACAD_REACTORS
330
C39
102
}
330
C39
100
AcDbXrecord
280
     1
  1
非表示ﾚｲﾔｰ
  1
*-z
  1
*
  1
*
 70
     0
  1
*
  1
*
  0
XRECORD
  5
E59
102
{ACAD_REACTORS
330
C39
102
}
330
C39
100
AcDbXrecord
280
     1
  1
表示
  1
*
  1
*
  1
*
 70
     1
  1
*
  1
*
  0
XRECORD
  5
E5A
102
{ACAD_REACTORS
330
C39
102
}
330
C39
100
AcDbXrecord
280
     1
  1
表示・非表示
  1
*
  1
*
  1
*
 70
     1
  1
*
  1
*
  0
XRECORD
  5
E5B
102
{ACAD_REACTORS
330
C39
102
}
330
C39
100
AcDbXrecord
280
     1
  1
表示2
  1
*
  1
*
  1
*
 70
   257
  1
*
  1
*
  0
XRECORD
  5
E5C
102
{ACAD_REACTORS
330
C39
102
}
330
C39
100
AcDbXrecord
280
     1
  1
分割枠
  1
枠*
  1
*
  1
*
 70
     0
  1
*
  1
*
  0
XRECORD
  5
E5D
102
{ACAD_REACTORS
330
C39
102
}
330
C39
100
AcDbXrecord
280
     1
  1
平面詳細図
  1
SUNPO-S,SIZE,HOJO,ZATU,HATCH,HWAKU,HMOJI,WARITUKE-T,WARITUKE-Y,WARITUKE-K,TATEGU1,TATEGU,BR-S,MAJIKIRI,KABE2,SIAGE,KABE1,KABE,KOBARI-S,KOBARI-R,HARI-S,HARI-R,HASIRA-S,HASIRA-R,MOJI,SHITUMEI,LABEL,FL-FUGO,FUGO-W,SUNPO,SUNPO2,SUNPO1,KIJUN2,KIJUN1,KIJUN
  1
*
  1
*
 70
     0
  1
*
  1
*
  0
XRECORD
  5
E5E
102
{ACAD_REACTORS
330
C39
102
}
330
C39
100
AcDbXrecord
280
     1
  1
平面図
  1
*HMOJI,*HOJO2,*HOJO3,*SINSEI,*FUGOT
  1
*
  1
*
 70
     0
  1
*
  1
*
  0
XRECORD
  5
E5F
102
{ACAD_REACTORS
330
C39
102
}
330
C39
100
AcDbXrecord
280
     1
  1
平面総合図
  1
001*,002*,004*,010*,013*,014*,015*,016*,017*,018*,019*,020*,021*,030*,031*,034*,040*,045*
  1
*
  1
*
 70
     0
  1
*
  1
*
  0
XRECORD
  5
E60
102
{ACAD_REACTORS
330
C39
102
}
330
C39
100
AcDbXrecord
280
     1
  1
変更分
  1
六*
  1
*
  1
*
 70
     0
  1
*
  1
*
  0
XRECORD
  5
E61
102
{ACAD_REACTORS
330
C39
102
}
330
C39
100
AcDbXrecord
280
     1
  1
舗装平面
  1
*ほ*
  1
*
  1
*
 70
     0
  1
*
  1
*
  0
XRECORD
  5
E62
102
{ACAD_REACTORS
330
C39
102
}
330
C39
100
AcDbXrecord
280
     1
  1
舗装平面C1
  1
*α*
  1
*
  1
*
 70
     0
  1
*
  1
*
  0
XRECORD
  5
E63
102
{ACAD_REACTORS
330
C39
102
}
330
C39
100
AcDbXrecord
280
     1
  1
舗装平面C2
  1
*β*
  1
*
  1
*
 70
     0
  1
*
  1
*
  0
XRECORD
  5
E64
102
{ACAD_REACTORS
330
C39
102
}
330
C39
100
AcDbXrecord
280
     1
  1
舗装平面図
  1
*ほ*
  1
*
  1
*
 70
     0
  1
*
  1
*
  0
XRECORD
  5
E65
102
{ACAD_REACTORS
330
C39
102
}
330
C39
100
AcDbXrecord
280
     1
  1
法規チェック－区画
  1
*92
  1
*
  1
*
 70
     0
  1
*
  1
*
  0
XRECORD
  5
E66
102
{ACAD_REACTORS
330
C39
102
}
330
C39
100
AcDbXrecord
280
     1
  1
法規チェック－範囲
  1
*0
  1
*
  1
*
 70
     0
  1
*
  1
*
  0
XRECORD
  5
E67
102
{ACAD_REACTORS
330
C39
102
}
330
C39
100
AcDbXrecord
280
     1
  1
鳳文字入力
  1
*
  1
*
  1
*
 70
     0
  1
*
  1
*
  0
XRECORD
  5
E68
102
{ACAD_REACTORS
330
C39
102
}
330
C39
100
AcDbXrecord
280
     1
  1
防災
  1
B*
  1
*
  1
*
 70
   768
  1
*
  1
*
  0
XRECORD
  5
E69
102
{ACAD_REACTORS
330
C39
102
}
330
C39
100
AcDbXrecord
280
     1
  1
名称
  1
*名称
  1
*
  1
*
 70
     0
  1
*
  1
*
  0
XRECORD
  5
E6A
102
{ACAD_REACTORS
330
C39
102
}
330
C39
100
AcDbXrecord
280
     1
  1
面積
  1
*
  1
*
  1
*
 70
     3
  1
*
  1
*
  0
XRECORD
  5
E6B
102
{ACAD_REACTORS
330
C39
102
}
330
C39
100
AcDbXrecord
280
     1
  1
擁壁平面図
  1
*よ*
  1
*
  1
*
 70
     0
  1
*
  1
*
  0
XRECORD
  5
E6C
102
{ACAD_REACTORS
330
C39
102
}
330
C39
100
AcDbXrecord
280
     1
  1
用途色塗
  1
*1-*
  1
*
  1
*
 70
     0
  1
*
  1
*
  0
XRECORD
  5
E6D
102
{ACAD_REACTORS
330
C39
102
}
330
C39
100
AcDbXrecord
280
     1
  1
立面図
  1
*HOJO2
  1
*
  1
*
 70
     0
  1
*
  1
*
  0
XRECORD
  5
E6E
102
{ACAD_REACTORS
330
C39
102
}
330
C39
100
AcDbXrecord
280
     1
  1
梁
  1
0,08*,17*,梁*
  1
*
  1
*
 70
     0
  1
*
  1
*
  0
XRECORD
  5
E6F
102
{ACAD_REACTORS
330
C39
102
}
330
C39
100
AcDbXrecord
280
     1
  1
緑
  1
*
  1
Green
  1
*
 70
     0
  1
*
  1
*
  0
ENDSEC
  0
EOF
